<?xml version="1.0" standalone="no"?>
<!DOCTYPE svg PUBLIC "-//W3C//DTD SVG 1.1//EN" "http://www.w3.org/Graphics/SVG/1.1/DTD/svg11.dtd" >
<svg xmlns="http://www.w3.org/2000/svg" xmlns:xlink="http://www.w3.org/1999/xlink" version="1.1">
<metadata>
Created by FontForge 20170731 at Sun Aug 23 17:55:53 2020
 By Aleksey,,,
Copyright 2020 The Cuprum Project Authors (https://github.com/alexeiva/cuprum), with Reserved Font Name "Cuprum".
</metadata>
<defs>
<font id="Cuprum-Bold" horiz-adv-x="475" >
  <font-face 
    font-family="Cuprum"
    font-weight="700"
    font-stretch="normal"
    units-per-em="1000"
    panose-1="0 0 5 0 0 0 0 0 0 0"
    ascent="800"
    descent="-200"
    x-height="500"
    cap-height="700"
    bbox="-70 -210 1025 1087"
    underline-thickness="50"
    underline-position="-175"
    unicode-range="U+000D-2215"
  />
<missing-glyph horiz-adv-x="500" 
d="M95 700h310v-700h-310v700zM134 664v-628h232v628h-232z" />
    <glyph glyph-name=".notdef" horiz-adv-x="500" 
d="M95 700h310v-700h-310v700zM134 664v-628h232v628h-232z" />
    <glyph glyph-name=".null" horiz-adv-x="0" 
 />
    <glyph glyph-name="nonmarkingreturn" horiz-adv-x="333" 
 />
    <glyph glyph-name="NULL" horiz-adv-x="0" 
 />
    <glyph glyph-name="NULL" horiz-adv-x="0" 
 />
    <glyph glyph-name="CR" unicode="&#xd;" horiz-adv-x="250" 
 />
    <glyph glyph-name="space" unicode=" " horiz-adv-x="250" 
 />
    <glyph glyph-name="exclam" unicode="!" horiz-adv-x="260" 
d="M80 185l-20 515h140l-20 -515h-100zM70 -10v120h120v-120h-120z" />
    <glyph glyph-name="quotedbl" unicode="&#x22;" horiz-adv-x="370" 
d="M235 465l-25 235h120l-25 -235h-70zM65 465l-25 235h120l-25 -235h-70z" />
    <glyph glyph-name="numbersign" unicode="#" horiz-adv-x="590" 
d="M80 0l30 195h-90v80h104l23 150h-97v80h110l30 195h115l-30 -195h90l30 195h115l-30 -195h90v-80h-104l-23 -150h97v-80h-110l-30 -195h-115l30 195h-90l-30 -195h-115zM228 275h111l23 150h-111z" />
    <glyph glyph-name="dollar" unicode="$" horiz-adv-x="465" 
d="M200 -90v80h-5q-52 0 -94.5 6.5t-65.5 13.5v55l165 1v242q-30 14 -60 30.5t-55 40.5t-40 60.5t-15 90.5q0 75 43 122.5t127 55.5v82h70v-81q41 -1 73.5 -7t51.5 -12v-55h-125v-243q29 -14 58.5 -30.5t53.5 -39.5t38.5 -57t14.5 -85q0 -76 -39 -123t-126 -61v-86h-70z
M270 85q23 14 34 38t11 57q0 31 -12.5 52t-32.5 37v-184zM200 432v191q-50 -27 -50 -93q0 -35 14 -58t36 -40z" />
    <glyph glyph-name="percent" unicode="%" horiz-adv-x="720" 
d="M105 0l390 700h120l-390 -700h-120zM540 -10q-71 0 -113 41.5t-42 108.5q0 68 42 109t113 41t113 -41t42 -109q0 -67 -42 -108.5t-113 -41.5zM540 60q23 0 39 19.5t16 60.5t-16 60.5t-39 19.5q-22 0 -38.5 -19.5t-16.5 -60.5t16.5 -60.5t38.5 -19.5zM180 410
q-71 0 -113 41.5t-42 108.5q0 68 42 109t113 41t113 -41t42 -109q0 -67 -42 -108.5t-113 -41.5zM180 480q23 0 39 19.5t16 60.5t-16 60.5t-39 19.5q-22 0 -38.5 -19.5t-16.5 -60.5t16.5 -60.5t38.5 -19.5z" />
    <glyph glyph-name="ampersand" unicode="&#x26;" horiz-adv-x="545" 
d="M210 -10q-79 0 -127 50t-48 140q0 45 6.5 86.5t13.5 63.5h95v-150q0 -47 11 -72t26.5 -34t27.5 -9q15 0 29.5 10t27.5 31.5t23 53.5q-51 71 -84.5 124t-53.5 94.5t-28.5 78t-8.5 73.5q0 83 49.5 131.5t135.5 48.5q53 0 95.5 -6t64.5 -14v-55h-140q-34 0 -59.5 -28
t-25.5 -77q0 -25 4 -51t14.5 -55t30 -65.5t51.5 -83.5l45 115h120l-90 -220l120 -170h-130l-47 68q-17 -26 -37 -43.5t-47 -26t-64 -8.5z" />
    <glyph glyph-name="quotesingle" unicode="'" horiz-adv-x="200" 
d="M65 465l-25 235h120l-25 -235h-70z" />
    <glyph glyph-name="parenleft" unicode="(" horiz-adv-x="266" 
d="M210 -190q-60 75 -95 159t-50 165t-15 146t15 146t50 165t95 159l56 -30q-46 -105 -66 -208.5t-20 -231.5q0 -127 20 -231t66 -209z" />
    <glyph glyph-name="parenright" unicode=")" horiz-adv-x="266" 
d="M56 -190l-56 30q46 105 66 209t20 231q0 128 -20 231.5t-66 208.5l56 30q60 -75 95 -159t50 -165t15 -146t-15 -146t-50 -165t-95 -159z" />
    <glyph glyph-name="asterisk" unicode="*" horiz-adv-x="450" 
d="M163 310l-86 47l62 117l-119 26l22 92l133 -29v137h100v-137l133 29l22 -92l-119 -26l62 -117l-86 -47l-62 118z" />
    <glyph glyph-name="plus" unicode="+" horiz-adv-x="450" 
d="M180 90v170h-150v80h150v170h90v-170h150v-80h-150v-170h-90z" />
    <glyph glyph-name="comma" unicode="," horiz-adv-x="195" 
d="M40 -120v230h120l-40 -230h-80z" />
    <glyph glyph-name="hyphen" unicode="-" horiz-adv-x="380" 
d="M30 260v80h320v-80h-320z" />
    <glyph glyph-name="period" unicode="." horiz-adv-x="200" 
d="M40 -10v120h120v-120h-120z" />
    <glyph glyph-name="slash" unicode="/" horiz-adv-x="420" 
d="M0 0l300 700h120l-300 -700h-120z" />
    <glyph glyph-name="zero" unicode="0" horiz-adv-x="530" 
d="M265 -10q-65 0 -114.5 33.5t-77.5 112.5t-28 214t28 213.5t77.5 112.5t114.5 34t114.5 -34t77.5 -112.5t28 -213.5t-28 -214t-77.5 -112.5t-114.5 -33.5zM265 60q17 0 34.5 12.5t32.5 44.5t24 88.5t9 144.5t-9 144.5t-24 88.5t-32.5 44.5t-34.5 12.5t-34.5 -12.5
t-32.5 -44.5t-24 -88.5t-9 -144.5t9 -144.5t24 -88.5t32.5 -44.5t34.5 -12.5z" />
    <glyph glyph-name="one" unicode="1" horiz-adv-x="305" 
d="M115 0v620h-105v60q23 8 65.5 14t94.5 6h65v-700h-120z" />
    <glyph glyph-name="two" unicode="2" horiz-adv-x="420" 
d="M15 0v90q68 77 116 135t79 104t45.5 87t14.5 84q0 71 -28 103t-77 32h-140v55q23 8 65.5 14t94.5 6q101 0 153 -52.5t52 -157.5q0 -47 -20 -96t-55 -101t-81 -107.5t-99 -115.5h250v-80h-370z" />
    <glyph glyph-name="three" unicode="3" horiz-adv-x="435" 
d="M175 -10q-52 0 -94.5 6.5t-65.5 13.5v55h140q64 0 94.5 30.5t30.5 94.5q0 71 -30.5 103.5t-94.5 32.5h-80v79h70q56 0 85.5 30t29.5 90q0 53 -28 81.5t-77 28.5h-130v55q23 8 65.5 14t94.5 6q94 0 144.5 -49.5t50.5 -135.5q0 -56 -27 -94t-68 -59v-4q35 -11 61 -38
t40 -63.5t14 -76.5q0 -97 -54.5 -148.5t-170.5 -51.5z" />
    <glyph glyph-name="four" unicode="4" horiz-adv-x="485" 
d="M285 0v170h-260v90l250 440h130v-450h55v-80h-55v-170h-120zM135 250h150v270h-4z" />
    <glyph glyph-name="five" unicode="5" horiz-adv-x="465" 
d="M205 -10q-52 0 -94.5 6.5t-65.5 13.5v55h140q64 0 94.5 32t30.5 103q0 75 -30.5 107.5t-94.5 32.5h-130v360h350v-75h-230v-210h30q116 0 170.5 -53t54.5 -162q0 -105 -54.5 -157.5t-170.5 -52.5z" />
    <glyph glyph-name="six" unicode="6" 
d="M245 -10q-97 0 -148.5 52.5t-51.5 157.5v220q0 150 56.5 220t153.5 70q53 0 95.5 -6t64.5 -14v-55h-130q-35 0 -62 -20t-42.5 -68.5t-15.5 -136.5q23 8 49.5 11.5t45.5 3.5q86 0 135.5 -53.5t49.5 -166.5q0 -109 -51 -162t-149 -53zM245 60q34 0 57 33t23 112
q0 83 -23 116.5t-87 33.5h-50v-155q0 -75 23 -107.5t57 -32.5z" />
    <glyph glyph-name="seven" unicode="7" horiz-adv-x="430" 
d="M105 0q23 143 68 295.5t112 324.5h-265v80h380v-90q-67 -172 -109.5 -319.5t-65.5 -290.5h-120z" />
    <glyph glyph-name="eight" unicode="8" horiz-adv-x="500" 
d="M250 -10q-109 0 -162 50t-53 140q0 49 18 84.5t47.5 60t64.5 38.5v4q-27 9 -53.5 30.5t-44 56t-17.5 81.5q0 79 51.5 127t148.5 48q98 0 149 -48t51 -127q0 -47 -17.5 -81.5t-43.5 -56t-54 -30.5v-4q35 -14 64.5 -38.5t47.5 -60t18 -84.5q0 -90 -53 -140t-162 -50z
M250 60q41 0 68 30t27 90q0 56 -27 87t-68 53q-41 -22 -68 -53t-27 -87q0 -60 27 -90t68 -30zM250 409q34 12 57 43t23 83q0 49 -25 77t-55 28t-55 -28t-25 -77q0 -52 23 -83t57 -43z" />
    <glyph glyph-name="nine" unicode="9" 
d="M220 -10q-52 0 -94.5 6.5t-65.5 13.5v55h130q35 0 62 20t42.5 69t15.5 136q-22 -7 -49 -11t-46 -4q-86 0 -135.5 54t-49.5 166q0 109 51.5 162t148.5 53q98 0 149 -52.5t51 -157.5v-220q0 -150 -56 -220t-154 -70zM260 345h50v155q0 75 -23 107.5t-57 32.5t-57 -33
t-23 -112q0 -82 23 -116t87 -34z" />
    <glyph glyph-name="colon" unicode=":" horiz-adv-x="200" 
d="M40 380v120h120v-120h-120zM40 -10v120h120v-120h-120z" />
    <glyph glyph-name="semicolon" unicode=";" horiz-adv-x="190" 
d="M40 -120v230h120l-40 -230h-80zM40 380v120h120v-120h-120z" />
    <glyph glyph-name="less" unicode="&#x3c;" horiz-adv-x="405" 
d="M365 5l-325 195v105l325 195v-120l-210 -123v-5l210 -127v-120z" />
    <glyph glyph-name="equal" unicode="=" horiz-adv-x="450" 
d="M30 345v85h390v-85h-390zM30 170v85h390v-85h-390z" />
    <glyph glyph-name="greater" unicode="&#x3e;" horiz-adv-x="405" 
d="M40 5v120l210 127v5l-210 123v120l325 -195v-105z" />
    <glyph glyph-name="question" unicode="?" horiz-adv-x="395" 
d="M105 185q0 56 14 93t35 64.5t42 52t35 54t14 71.5q0 56 -28 85.5t-77 29.5h-130v55q23 8 65.5 14t94.5 6q94 0 144.5 -50t50.5 -140q0 -51 -15 -86.5t-38 -63t-46.5 -53.5t-40.5 -57t-20 -75h-100zM95 -10v120h120v-120h-120z" />
    <glyph glyph-name="at" unicode="@" horiz-adv-x="850" 
d="M440 -90q-191 0 -293 102.5t-102 297.5t99.5 297.5t275.5 102.5q123 0 209 -43.5t131 -121t45 -180.5q0 -97 -28.5 -158t-91 -89t-165.5 -28l-15 30h-5q-19 -19 -42.5 -29.5t-57.5 -10.5q-42 0 -80 24t-61.5 72.5t-23.5 123.5q0 85 24 138t74 77.5t127 24.5q41 0 82 -6
t63 -14v-365q23 0 43.5 18t33.5 64t13 128q0 131 -72 203t-203 72q-82 0 -141.5 -34.5t-91.5 -107.5t-32 -188q0 -112 33.5 -184t101.5 -106.5t170 -34.5h140v-55q-22 -7 -64.5 -13.5t-95.5 -6.5zM430 150q19 0 33.5 6.5t21.5 13.5v300h-25q-32 0 -56 -15.5t-36.5 -52.5
t-12.5 -102q0 -55 11.5 -88t29 -47.5t34.5 -14.5z" />
    <glyph glyph-name="A" unicode="A" horiz-adv-x="540" 
d="M15 0l180 700h150l180 -700h-125l-44 175h-172l-44 -175h-125zM200 255h139l-67 285h-4z" />
    <glyph glyph-name="B" unicode="B" horiz-adv-x="530" 
d="M245 -10q-56 0 -96.5 4.5t-78.5 15.5v680q38 11 78.5 15.5t96.5 4.5q113 0 166.5 -49.5t53.5 -135.5q0 -45 -25 -86t-70 -62v-4q60 -21 92.5 -68t32.5 -115q0 -97 -57.5 -148.5t-192.5 -51.5zM190 65h55q64 0 94.5 31.5t30.5 98.5q0 71 -30.5 103t-94.5 32h-55v-265z
M190 405h45q49 0 77 29.5t28 85.5t-28 85.5t-77 29.5h-45v-230z" />
    <glyph glyph-name="C" unicode="C" horiz-adv-x="455" 
d="M280 -10q-77 0 -129.5 31.5t-79 110t-26.5 218.5t26 218.5t76.5 110t122.5 31.5q53 0 95.5 -6t64.5 -14v-55h-120q-42 0 -75 -24.5t-51.5 -86t-18.5 -174.5q0 -112 19 -174t54 -86.5t82 -24.5h120v-55q-22 -7 -64.5 -13.5t-95.5 -6.5z" />
    <glyph glyph-name="D" unicode="D" horiz-adv-x="545" 
d="M245 -10q-56 0 -96.5 4.5t-78.5 15.5v680q38 11 78.5 15.5t96.5 4.5q83 0 139.5 -34t86 -112.5t29.5 -213.5t-29.5 -214t-86 -112.5t-139.5 -33.5zM190 65h55q40 0 70.5 24.5t47.5 86.5t17 174q0 113 -17 174.5t-47.5 86t-70.5 24.5h-55v-570z" />
    <glyph glyph-name="E" unicode="E" 
d="M70 0v700h365v-80h-245v-215h215v-80h-215v-245h245v-80h-365z" />
    <glyph glyph-name="F" unicode="F" horiz-adv-x="455" 
d="M70 0v700h365v-80h-245v-230h205v-80h-205v-310h-120z" />
    <glyph glyph-name="G" unicode="G" horiz-adv-x="525" 
d="M300 -10q-87 0 -143.5 31.5t-84 110t-27.5 218.5t26.5 218.5t79 110t129.5 31.5q53 0 95.5 -6t64.5 -14v-55h-130q-42 0 -75 -24.5t-51.5 -86t-18.5 -174.5q0 -112 19 -174t54 -86.5t82 -24.5h25v315h120v-370q-22 -7 -65.5 -13.5t-99.5 -6.5z" />
    <glyph glyph-name="H" unicode="H" horiz-adv-x="560" 
d="M70 0v700h120v-305h180v305h120v-700h-120v315h-180v-315h-120z" />
    <glyph glyph-name="I" unicode="I" horiz-adv-x="260" 
d="M70 0v700h120v-700h-120z" />
    <glyph glyph-name="J" unicode="J" horiz-adv-x="375" 
d="M100 -10q-30 0 -55.5 6.5t-44.5 13.5v55h100q28 0 49 15.5t33.5 54t12.5 105.5v460h120v-460q0 -90 -23.5 -145t-71 -80t-120.5 -25z" />
    <glyph glyph-name="K" unicode="K" horiz-adv-x="520" 
d="M70 0v700h120v-320l165 320h135l-185 -345l205 -355h-135l-185 330v-330h-120z" />
    <glyph glyph-name="L" unicode="L" horiz-adv-x="445" 
d="M70 0v700h120v-620h245v-80h-365z" />
    <glyph glyph-name="M" unicode="M" horiz-adv-x="760" 
d="M50 0l40 700h130l158 -475h4l158 475h130l40 -700h-115l-27 474h-4l-129 -389h-110l-129 389h-4l-27 -474h-115z" />
    <glyph glyph-name="N" unicode="N" horiz-adv-x="570" 
d="M70 0v700h120l190 -460h5v460h115v-700h-120l-190 460h-5v-460h-115z" />
    <glyph glyph-name="O" unicode="O" horiz-adv-x="550" 
d="M275 -10q-70 0 -121.5 33.5t-80 112.5t-28.5 214t28.5 213.5t80 112.5t121.5 34t121.5 -34t80 -112.5t28.5 -213.5t-28.5 -214t-80 -112.5t-121.5 -33.5zM275 60q21 0 40.5 13.5t35 45.5t25 88.5t9.5 142.5t-9.5 142.5t-25 88.5t-35 45.5t-40.5 13.5t-40.5 -13.5
t-35 -45.5t-25 -88.5t-9.5 -142.5t9.5 -142.5t25 -88.5t35 -45.5t40.5 -13.5z" />
    <glyph glyph-name="P" unicode="P" horiz-adv-x="515" 
d="M70 0v690q38 11 78.5 15.5t96.5 4.5q83 0 134.5 -25t76 -80t24.5 -145q0 -95 -23 -152t-68.5 -82.5t-113.5 -25.5q-11 0 -38.5 3t-46.5 7v-210h-120zM190 280h55q38 0 63.5 16t38.5 55t13 109q0 68 -13 106t-38.5 53.5t-63.5 15.5h-55v-355z" />
    <glyph glyph-name="Q" unicode="Q" horiz-adv-x="555" 
d="M275 -10q-70 0 -121.5 33.5t-80 112.5t-28.5 214t28.5 213.5t80 112.5t121.5 34t121.5 -34t80 -112.5t28.5 -213.5q0 -112 -22.5 -182t-52.5 -108q45 0 71.5 -6t48.5 -14v-50h-275zM275 60q21 0 40.5 13.5t35 45.5t25 88.5t9.5 142.5t-9.5 142.5t-25 88.5t-35 45.5
t-40.5 13.5t-40.5 -13.5t-35 -45.5t-25 -88.5t-9.5 -142.5q0 -90 10 -147t26.5 -88t35.5 -43t38 -12z" />
    <glyph glyph-name="R" unicode="R" horiz-adv-x="535" 
d="M70 0v690q38 11 78.5 15.5t96.5 4.5q83 0 134.5 -24.5t76 -77.5t24.5 -138q0 -67 -14 -110.5t-38.5 -69t-57.5 -40.5l135 -250h-135l-115 225h-65v-225h-120zM190 305h55q56 0 85.5 35.5t29.5 129.5q0 63 -13 99t-38.5 51t-63.5 15h-55v-330z" />
    <glyph glyph-name="S" unicode="S" horiz-adv-x="465" 
d="M195 -10q-52 0 -94.5 6.5t-65.5 13.5v55h140q75 0 107.5 29.5t32.5 85.5q0 41 -20.5 66t-53 42t-69 33.5t-69 41t-53 64t-20.5 103.5q0 83 52 131.5t153 48.5q53 0 95.5 -6t64.5 -14v-55h-140q-49 0 -77 -28t-28 -77q0 -44 20.5 -70.5t53 -44t69 -34t69 -40.5t53 -62
t20.5 -99q0 -90 -56 -140t-184 -50z" />
    <glyph glyph-name="T" unicode="T" horiz-adv-x="450" 
d="M165 0v620h-155v80h430v-80h-155v-620h-120z" />
    <glyph glyph-name="U" unicode="U" horiz-adv-x="550" 
d="M275 -10q-72 0 -120 25t-71.5 80t-23.5 145v460h120v-460q0 -70 12.5 -109t34 -55t48.5 -16q28 0 49 16t33.5 55t12.5 109v460h120v-460q0 -90 -23.5 -145t-71 -80t-120.5 -25z" />
    <glyph glyph-name="V" unicode="V" horiz-adv-x="520" 
d="M185 0l-170 700h125l118 -545h4l118 545h125l-170 -700h-150z" />
    <glyph glyph-name="W" unicode="W" horiz-adv-x="750" 
d="M140 0l-125 700h125l85 -505h4l96 375h100l96 -375h4l85 505h125l-125 -700h-130l-103 390h-4l-103 -390h-130z" />
    <glyph glyph-name="X" unicode="X" horiz-adv-x="490" 
d="M10 0l145 360l-130 340h125l95 -260l95 260h125l-130 -340l145 -360h-125l-110 285l-110 -285h-125z" />
    <glyph glyph-name="Y" unicode="Y" horiz-adv-x="480" 
d="M180 0v210l-175 490h125l110 -341l110 341h125l-175 -490v-210h-120z" />
    <glyph glyph-name="Z" unicode="Z" horiz-adv-x="435" 
d="M20 0v75l260 545h-255v80h390v-75l-260 -545h255v-80h-390z" />
    <glyph glyph-name="bracketleft" unicode="[" horiz-adv-x="285" 
d="M70 -180v920h215v-70h-95v-780h95v-70h-215z" />
    <glyph glyph-name="backslash" unicode="\" horiz-adv-x="420" 
d="M300 0l-300 700h120l300 -700h-120z" />
    <glyph glyph-name="bracketright" unicode="]" horiz-adv-x="285" 
d="M0 -180v70h95v780h-95v70h215v-920h-215z" />
    <glyph glyph-name="asciicircum" unicode="^" 
d="M115 395l-85 55l155 250h105l155 -250l-85 -55l-120 200h-5z" />
    <glyph glyph-name="underscore" unicode="_" horiz-adv-x="320" 
d="M0 -80v80h320v-80h-320z" />
    <glyph glyph-name="grave" unicode="`" horiz-adv-x="200" 
d="M99 560l-75 130h115l35 -130h-75z" />
    <glyph glyph-name="a" unicode="a" 
d="M195 -10q-42 0 -77.5 13t-56.5 47.5t-21 99.5t21.5 99.5t59 47.5t84.5 13q23 0 44.5 -3t40.5 -7v40q0 60 -28 80t-77 20h-100v50q23 8 56.5 14t63.5 6q68 0 113.5 -13.5t68.5 -50t23 -106.5v-340h-85l-15 30h-5q-16 -15 -42.5 -27.5t-67.5 -12.5zM235 60q19 0 33.5 6.5
t21.5 13.5v160h-55q-17 0 -34.5 -8t-29 -27.5t-11.5 -54.5t11.5 -54.5t29 -27.5t34.5 -8z" />
    <glyph glyph-name="b" unicode="b" horiz-adv-x="495" 
d="M235 -10q-52 0 -89.5 7.5t-75.5 22.5v680h120v-215q16 11 37.5 18t47.5 7q55 0 95.5 -25.5t62.5 -82.5t22 -152t-23.5 -152t-72.5 -82.5t-124 -25.5zM190 60h45q30 0 52.5 16.5t35 57.5t12.5 116t-12 116.5t-32.5 57.5t-45.5 16q-19 0 -33 -6t-22 -14v-360z" />
    <glyph glyph-name="c" unicode="c" horiz-adv-x="395" 
d="M250 -10q-70 0 -116.5 25.5t-70 82.5t-23.5 152t23 152t67.5 82.5t109.5 25.5q38 0 73 -6t57 -14v-50h-110q-30 0 -52.5 -16t-35 -57.5t-12.5 -116.5t13 -116t37.5 -57.5t59.5 -16.5h110v-50q-22 -7 -57 -13.5t-73 -6.5z" />
    <glyph glyph-name="d" unicode="d" horiz-adv-x="495" 
d="M210 -10q-50 0 -88.5 25.5t-60 82.5t-21.5 152t22 152t62.5 82.5t95.5 25.5q26 0 47.5 -7t37.5 -18v215h120v-700h-85l-15 30h-5q-16 -15 -42.5 -27.5t-67.5 -12.5zM250 60q19 0 31.5 6.5t23.5 13.5v340q-7 8 -21.5 14t-33.5 6q-25 0 -45.5 -16t-32.5 -57.5t-12 -116.5
t12 -116t32.5 -57.5t45.5 -16.5z" />
    <glyph glyph-name="e" unicode="e" horiz-adv-x="460" 
d="M265 -10q-77 0 -127 25.5t-74 82.5t-24 152t22.5 152t65 82.5t102.5 25.5t102.5 -25.5t65 -82.5t22.5 -152v-35h-260q0 -86 30.5 -120.5t94.5 -34.5h110v-50q-22 -7 -57 -13.5t-73 -6.5zM160 285h140q0 65 -9 99.5t-25 47.5t-36 13t-36 -13t-25 -47.5t-9 -99.5z" />
    <glyph glyph-name="f" unicode="f" horiz-adv-x="340" 
d="M75 0v415h-55v75h55v40q0 70 21 106.5t56.5 50t77.5 13.5q20 0 43 -3t44 -7.5t33 -9.5v-50h-80q-20 0 -37 -8.5t-27.5 -30t-10.5 -61.5v-40h135v-55q-22 -7 -57 -13.5t-73 -6.5h-5v-415h-120z" />
    <glyph glyph-name="g" unicode="g" horiz-adv-x="490" 
d="M210 -210q-37 0 -72 6.5t-58 13.5v50h110q56 0 85.5 34.5t29.5 120.5q-15 -11 -37 -18t-48 -7q-55 0 -95.5 25.5t-62.5 82.5t-22 152t24 152t72.5 82.5t123.5 25.5q53 0 90.5 -7.5t74.5 -22.5v-440q0 -90 -23.5 -145t-71 -80t-120.5 -25zM250 60q19 0 33.5 6.5t21.5 13.5
v360h-45q-30 0 -52.5 -16t-35 -57.5t-12.5 -116.5t12 -116t32.5 -57.5t45.5 -16.5z" />
    <glyph glyph-name="h" unicode="h" horiz-adv-x="510" 
d="M70 0v700h120v-220q19 15 44.5 22.5t55.5 7.5q43 0 78 -13t56 -47.5t21 -99.5v-350h-120v350q0 53 -25 71.5t-55 18.5q-19 0 -33 -6t-22 -14v-420h-120z" />
    <glyph glyph-name="i" unicode="i" horiz-adv-x="260" 
d="M70 0v500h120v-500h-120zM70 560v120h120v-120h-120z" />
    <glyph glyph-name="j" unicode="j" horiz-adv-x="265" 
d="M40 -210q-30 0 -55.5 6.5t-44.5 13.5v50h70q18 0 32.5 10.5t23.5 32.5t9 57v540h120v-540q0 -70 -21 -106.5t-56 -50t-78 -13.5zM75 560v120h120v-120h-120z" />
    <glyph glyph-name="k" unicode="k" horiz-adv-x="460" 
d="M70 0v700h120v-415l120 215h130l-135 -235l145 -265h-130l-130 245v-245h-120z" />
    <glyph glyph-name="l" unicode="l" horiz-adv-x="260" 
d="M70 0v700h120v-700h-120z" />
    <glyph glyph-name="m" unicode="m" horiz-adv-x="740" 
d="M65 0v500h85l15 -30h5q16 15 43 27.5t72 12.5q38 0 64.5 -10.5t45.5 -29.5q23 19 54 29.5t76 10.5q40 0 74 -13t55 -47.5t21 -99.5v-350h-120v350q0 35 -11.5 54.5t-28.5 27.5t-35 8q-19 0 -34 -4.5t-26 -10.5q4 -11 7 -31.5t3 -43.5v-350h-120v350q0 35 -11 54.5
t-27.5 27.5t-31.5 8q-19 0 -33 -6t-22 -14v-420h-120z" />
    <glyph glyph-name="n" unicode="n" horiz-adv-x="505" 
d="M65 0v500h85l15 -30h5q16 15 43 27.5t72 12.5q43 0 78 -13t56 -47.5t21 -99.5v-350h-120v350q0 53 -25 71.5t-55 18.5q-19 0 -33 -6t-22 -14v-420h-120z" />
    <glyph glyph-name="o" unicode="o" horiz-adv-x="480" 
d="M240 -10q-65 0 -109.5 25.5t-67.5 82.5t-23 152t23 152t67.5 82.5t109.5 25.5t109.5 -25.5t67.5 -82.5t23 -152t-23 -152t-67.5 -82.5t-109.5 -25.5zM240 55q23 0 41 16.5t28.5 59t10.5 119.5q0 78 -10.5 120t-28.5 58.5t-41 16.5q-22 0 -40.5 -16.5t-29 -58.5
t-10.5 -120q0 -77 10.5 -119.5t29 -59t40.5 -16.5z" />
    <glyph glyph-name="p" unicode="p" horiz-adv-x="490" 
d="M65 -200v700h85l15 -30h5q16 15 42.5 27.5t67.5 12.5q50 0 88.5 -25.5t60 -82.5t21.5 -152t-22 -152t-62.5 -82.5t-95.5 -25.5q-26 0 -47.5 7t-37.5 18v-215h-120zM240 60q25 0 45.5 16.5t32.5 57.5t12 116t-12 116.5t-32.5 57.5t-45.5 16q-19 0 -31.5 -6t-23.5 -14v-340
q8 -7 22 -13.5t33 -6.5z" />
    <glyph glyph-name="q" unicode="q" horiz-adv-x="490" 
d="M305 -200v215q-16 -11 -37.5 -18t-47.5 -7q-55 0 -95.5 25.5t-62.5 82.5t-22 152t24 152t72.5 82.5t123.5 25.5q53 0 90.5 -7.5t74.5 -22.5v-680h-120zM250 60q19 0 33.5 6.5t21.5 13.5v360h-45q-30 0 -52.5 -16t-35 -57.5t-12.5 -116.5t12 -116t32.5 -57.5t45.5 -16.5z
" />
    <glyph glyph-name="r" unicode="r" horiz-adv-x="360" 
d="M65 0v500h85l15 -40h5q16 15 43 27.5t72 12.5h65v-85h-110q-19 0 -33 -6t-22 -14v-395h-120z" />
    <glyph glyph-name="s" unicode="s" horiz-adv-x="415" 
d="M170 -10q-37 0 -72 6.5t-58 13.5v50h110q56 0 85.5 16.5t29.5 53.5q0 26 -17 42.5t-43.5 28.5t-57 24.5t-57 30t-43.5 45t-17 69.5q0 83 50.5 111.5t144.5 28.5q38 0 73 -6t57 -14v-50h-110q-41 0 -68 -15t-27 -45q0 -26 17 -42.5t43.5 -28.5t57 -24.5t57 -30t43.5 -44.5
t17 -70q0 -60 -23.5 -92.5t-71 -45t-120.5 -12.5z" />
    <glyph glyph-name="t" unicode="t" horiz-adv-x="365" 
d="M230 -10q-42 0 -77.5 13.5t-56.5 50t-21 106.5v255h-55v75h55v120h120v-120h135v-55q-22 -7 -57 -13.5t-73 -6.5h-5v-255q0 -40 10 -61.5t25 -30t30 -8.5h90v-50q-12 -5 -33 -9.5t-44 -7.5t-43 -3z" />
    <glyph glyph-name="u" unicode="u" horiz-adv-x="505" 
d="M220 -10q-42 0 -77.5 13t-56.5 47.5t-21 99.5v350h120v-350q0 -52 25 -71t55 -19q19 0 33.5 6.5t21.5 13.5v420h120v-500h-85l-15 30h-5q-16 -15 -43 -27.5t-72 -12.5z" />
    <glyph glyph-name="v" unicode="v" horiz-adv-x="470" 
d="M160 0l-145 500h120l98 -375h4l98 375h120l-145 -500h-150z" />
    <glyph glyph-name="w" unicode="w" horiz-adv-x="650" 
d="M115 0l-100 500h120l61 -350h4l80 250h90l80 -250h4l61 350h120l-100 -500h-130l-78 245h-4l-78 -245h-130z" />
    <glyph glyph-name="x" unicode="x" horiz-adv-x="430" 
d="M10 0l120 255l-115 245h125l75 -175l75 175h125l-115 -245l120 -255h-125l-80 185l-80 -185h-125z" />
    <glyph glyph-name="y" unicode="y" horiz-adv-x="505" 
d="M225 -210q-37 0 -72 6.5t-58 13.5v50h110q56 0 85.5 35t29.5 125q-19 -15 -44.5 -22.5t-55.5 -7.5q-42 0 -77.5 13t-56.5 47.5t-21 99.5v350h120v-350q0 -52 25 -71t55 -19q19 0 33.5 6.5t21.5 13.5v420h120v-460q0 -90 -23.5 -145t-71 -80t-120.5 -25z" />
    <glyph glyph-name="z" unicode="z" horiz-adv-x="400" 
d="M20 0v70l220 355h-210v75h350v-70l-220 -355h215v-75h-355z" />
    <glyph glyph-name="braceleft" unicode="{" horiz-adv-x="300" 
d="M300 -180q-67 0 -113 13.5t-69 50t-23 106.5v130q0 60 -20.5 87t-54.5 38v70q34 11 54.5 38t20.5 87v130q0 70 23 106.5t69 50t113 13.5v-70q-34 0 -59.5 -20t-25.5 -80v-110q0 -55 -12 -88t-32.5 -53t-45.5 -37v-4q25 -16 45.5 -36.5t32.5 -53.5t12 -88v-110
q0 -44 12 -65.5t31.5 -28t41.5 -6.5v-70z" />
    <glyph glyph-name="bar" unicode="|" horiz-adv-x="260" 
d="M70 -200v900h120v-900h-120z" />
    <glyph glyph-name="braceright" unicode="}" horiz-adv-x="300" 
d="M0 -180v70q23 0 42 6.5t31 28t12 65.5v110q0 55 12 88t32.5 53.5t45.5 36.5v4q-25 17 -45.5 37t-32.5 53t-12 88v110q0 60 -25.5 80t-59.5 20v70q68 0 113.5 -13.5t68.5 -50t23 -106.5v-130q0 -60 20.5 -87t54.5 -38v-70q-34 -11 -54.5 -38t-20.5 -87v-130
q0 -70 -23 -106.5t-68.5 -50t-113.5 -13.5z" />
    <glyph glyph-name="asciitilde" unicode="~" horiz-adv-x="460" 
d="M30 190q0 86 27 135.5t98 49.5q34 0 55.5 -12t36.5 -28t28 -28t30 -12q23 0 34 20.5t11 54.5h80q0 -86 -27 -135.5t-98 -49.5q-34 0 -55.5 12t-36.5 28t-28 28t-30 12q-22 0 -33.5 -20.5t-11.5 -54.5h-80z" />
    <glyph glyph-name="uni00A0" unicode="&#xa0;" horiz-adv-x="250" 
 />
    <glyph glyph-name="exclamdown" unicode="&#xa1;" horiz-adv-x="260" 
d="M60 0l20 515h100l20 -515h-140zM70 590v120h120v-120h-120z" />
    <glyph glyph-name="cent" unicode="&#xa2;" horiz-adv-x="395" 
d="M225 -60v51q-62 4 -103 31t-61.5 83t-20.5 145q0 91 21 147t62.5 83t101.5 29v61h70v-64q22 -3 41.5 -7t33.5 -9v-50h-75v-380h85v-50q-16 -5 -38 -10t-47 -7v-53h-70zM225 68v366q-30 -12 -47.5 -53.5t-17.5 -130.5q0 -85 17 -127t48 -55z" />
    <glyph glyph-name="sterling" unicode="&#xa3;" horiz-adv-x="435" 
d="M45 0v60q15 10 25 26t15 45t5 79v105h-55v80h55v105q0 90 23.5 135t71.5 60t120 15q30 0 55.5 -6t44.5 -14v-55h-100q-27 0 -48.5 -10t-34 -38.5t-12.5 -86.5v-105h145v-80h-145v-81q0 -67 -15.5 -100.5t-34.5 -49.5v-4h255v-80h-370z" />
    <glyph glyph-name="currency" unicode="&#xa4;" horiz-adv-x="520" 
d="M80 125l-60 60l70 70q-11 15 -18 42t-7 53t7 53t18 42l-70 70l60 60l70 -65q15 11 44 20.5t66 9.5q38 0 66.5 -9.5t43.5 -20.5l70 65l60 -60l-70 -70q11 -15 18 -42t7 -53t-7 -53t-18 -42l70 -70l-60 -60l-70 65q-15 -11 -43.5 -20.5t-66.5 -9.5q-37 0 -66 9.5t-44 20.5z
M260 235q30 0 55 29.5t25 85.5t-25 85.5t-55 29.5t-55 -29.5t-25 -85.5t25 -85.5t55 -29.5z" />
    <glyph glyph-name="yen" unicode="&#xa5;" horiz-adv-x="480" 
d="M180 0v195h-115v80h92l-18 50h-74v80h45l-105 295h125l110 -341l110 341h125l-106 -295h46v-80h-74l-18 -50h92v-80h-115v-195h-120z" />
    <glyph glyph-name="brokenbar" unicode="&#xa6;" horiz-adv-x="260" 
d="M70 310v370h120v-370h-120zM70 -200v370h120v-370h-120z" />
    <glyph glyph-name="section" unicode="&#xa7;" horiz-adv-x="465" 
d="M205 -210q-45 0 -83.5 6.5t-61.5 13.5v50h125q60 0 90 26.5t30 63.5q0 31 -19 51.5t-49.5 36.5t-64 32t-64 38.5t-49.5 56.5t-19 85q0 56 29.5 94.5t70.5 60.5q-37 23 -63.5 54t-26.5 91q0 68 52.5 114t157.5 46q45 0 84 -6t61 -14v-50h-125q-52 0 -81 -26t-29 -64
q0 -31 18.5 -51.5t47.5 -36.5t61.5 -32t61.5 -38.5t47.5 -56.5t18.5 -85q0 -57 -28.5 -94t-66.5 -56q38 -22 66.5 -56t28.5 -94q0 -67 -53.5 -113.5t-166.5 -46.5zM255 135q23 15 36.5 42.5t13.5 72.5q0 28 -13.5 49t-35 37.5t-46.5 28.5q-22 -15 -36 -42.5t-14 -72.5
q0 -27 13.5 -48.5t35 -37.5t46.5 -29z" />
    <glyph glyph-name="dieresis" unicode="&#xa8;" horiz-adv-x="310" 
d="M180 570v120h110v-120h-110zM20 570v120h110v-120h-110z" />
    <glyph glyph-name="copyright" unicode="&#xa9;" horiz-adv-x="840" 
d="M420 -20q-112 0 -196.5 46.5t-131.5 130t-47 193.5t47 193.5t131.5 130t196.5 46.5q113 0 197 -46.5t131 -130t47 -193.5t-47 -193.5t-131 -130t-197 -46.5zM430 130q-43 0 -77.5 9.5t-58.5 33t-36.5 67t-12.5 110.5q0 68 12.5 111t36.5 66.5t58.5 33t77.5 9.5
q41 0 72 -6t53 -14v-50h-105q-27 0 -48.5 -10.5t-34 -42.5t-12.5 -97t12.5 -97t34 -42.5t48.5 -10.5h115v-50q-22 -7 -58 -13.5t-77 -6.5zM420 50q83 0 144.5 35.5t96 102.5t34.5 162t-34.5 162t-96 102.5t-144.5 35.5q-82 0 -144 -35.5t-96.5 -102.5t-34.5 -162t34.5 -162
t96.5 -102.5t144 -35.5z" />
    <glyph glyph-name="ordfeminine" unicode="&#xaa;" horiz-adv-x="305" 
d="M125 395q-37 0 -66 21.5t-29 73.5q0 56 30 78t75 22q13 0 25.5 -1t21 -2.5l8.5 -1.5v15q0 23 -14.5 34t-40.5 11h-80v48q15 5 39.5 8.5t50.5 3.5q64 0 97 -20.5t33 -84.5v-200h-70l-10 20q-15 -11 -31 -18t-39 -7zM155 455q15 0 25 2.5l10 2.5v70h-35q-19 0 -29.5 -10.5
t-10.5 -29.5q0 -15 10.5 -25t29.5 -10z" />
    <glyph glyph-name="guillemotleft" unicode="&#xab;" horiz-adv-x="510" 
d="M395 20l-175 230l175 230l85 -55l-130 -172v-6l130 -172zM195 20l-175 230l175 230l85 -55l-130 -172v-6l130 -172z" />
    <glyph glyph-name="logicalnot" unicode="&#xac;" horiz-adv-x="445" 
d="M330 240l-15 95h-285v80h385v-175h-85z" />
    <glyph glyph-name="uni00AD" unicode="&#xad;" horiz-adv-x="360" 
d="M30 260v80h300v-80h-300z" />
    <glyph glyph-name="registered" unicode="&#xae;" horiz-adv-x="840" 
d="M420 -20q-112 0 -196.5 46.5t-131.5 130t-47 193.5t47 193.5t131.5 130t196.5 46.5q113 0 197 -46.5t131 -130t47 -193.5t-47 -193.5t-131 -130t-197 -46.5zM420 50q83 0 144.5 35.5t96 102.5t34.5 162t-34.5 162t-96 102.5t-144.5 35.5q-82 0 -144 -35.5t-96.5 -102.5
t-34.5 -162t34.5 -162t96.5 -102.5t144 -35.5zM265 140v410q26 8 59.5 14t85.5 6q90 0 135 -32.5t45 -107.5q0 -42 -12.5 -67t-29.5 -37.5t-33 -20.5l85 -165h-115l-70 145h-40v-145h-110zM375 355h35q30 0 50 17t20 58q0 38 -20 54t-50 16h-35v-145z" />
    <glyph glyph-name="macron" unicode="&#xaf;" horiz-adv-x="280" 
d="M20 630v70h240v-70h-240z" />
    <glyph glyph-name="degree" unicode="&#xb0;" horiz-adv-x="410" 
d="M205 390q-79 0 -122 42.5t-43 117.5t43 117.5t122 42.5t122 -42.5t43 -117.5t-43 -117.5t-122 -42.5zM205 460q23 0 41.5 22.5t18.5 67.5t-18.5 67.5t-41.5 22.5q-22 0 -41 -22.5t-19 -67.5t19 -67.5t41 -22.5z" />
    <glyph glyph-name="plusminus" unicode="&#xb1;" horiz-adv-x="450" 
d="M180 150v150h-150v80h150v160h90v-160h150v-80h-150v-150h-90zM30 45v80h390v-80h-390z" />
    <glyph glyph-name="uni00B2" unicode="&#xb2;" horiz-adv-x="270" 
d="M30 400v65q53 41 89 77.5t36 62.5q0 15 -11 27.5t-34 12.5h-70v49q15 5 39 8t46 3q60 0 87.5 -25.5t27.5 -74.5q0 -34 -27.5 -67t-87.5 -78h115v-60h-210z" />
    <glyph glyph-name="uni00B3" unicode="&#xb3;" horiz-adv-x="270" 
d="M110 395q-22 0 -43.5 3.5t-36.5 7.5v49h80q23 0 34 10t11 25t-10.5 25t-29.5 10h-50v60h45q19 0 27 9.5t8 20.5t-9 20.5t-32 9.5h-74v49q14 5 36.5 8t48.5 3q53 0 84 -18t31 -67q0 -26 -15 -41t-30 -19q19 -4 37 -22.5t18 -52.5q0 -52 -33 -71t-97 -19z" />
    <glyph glyph-name="acute" unicode="&#xb4;" horiz-adv-x="190" 
d="M20 560l35 130h115l-75 -130h-75z" />
    <glyph glyph-name="uni00B5" unicode="&#xb5;" horiz-adv-x="505" 
d="M65 -200v700h120v-330q0 -52 25 -81t55 -29q19 0 33.5 6.5t21.5 13.5v420h120v-500h-85l-15 30h-5q-19 -19 -39.5 -29.5t-50.5 -10.5q-22 0 -37 9t-23 16v-215h-120z" />
    <glyph glyph-name="paragraph" unicode="&#xb6;" horiz-adv-x="565" 
d="M225 -200v530q-94 0 -144.5 49.5t-50.5 135.5q0 48 22.5 90t66.5 68.5t106 26.5h320v-80h-60v-820h-110v820h-40v-820h-110z" />
    <glyph glyph-name="periodcentered" unicode="&#xb7;" horiz-adv-x="280" 
d="M80 290v120h120v-120h-120z" />
    <glyph glyph-name="cedilla" unicode="&#xb8;" horiz-adv-x="215" 
d="M95 -170q-37 0 -56 7.5l-19 7.5v34h65q23 0 29 6.5t6 14.5t-5.5 14.5t-24.5 6.5h-55v94h55v-45h15q45 0 67.5 -20t22.5 -50t-25.5 -50t-74.5 -20z" />
    <glyph glyph-name="uni00B9" unicode="&#xb9;" horiz-adv-x="200" 
d="M85 400v240h-55v48q15 5 42.5 8.5t57.5 3.5h40v-300h-85z" />
    <glyph glyph-name="ordmasculine" unicode="&#xba;" horiz-adv-x="320" 
d="M160 395q-56 0 -93 38t-37 117t37 117t93 38t93 -38t37 -117t-37 -117t-93 -38zM160 455q19 0 32 21.5t13 73.5q0 53 -13 74t-32 21t-32 -21t-13 -74q0 -52 13 -73.5t32 -21.5z" />
    <glyph glyph-name="guillemotright" unicode="&#xbb;" horiz-adv-x="510" 
d="M315 20l-85 55l130 172v6l-130 172l85 55l175 -230zM115 20l-85 55l130 172v6l-130 172l85 55l175 -230z" />
    <glyph glyph-name="onequarter" unicode="&#xbc;" horiz-adv-x="590" 
d="M40 0l390 700h110l-390 -700h-110zM425 0v55h-140v60l140 185h85v-185h25v-60h-25v-55h-85zM360 115h65v85zM105 400v240h-55v48q15 5 42.5 8.5t57.5 3.5h40v-300h-85z" />
    <glyph glyph-name="onehalf" unicode="&#xbd;" horiz-adv-x="620" 
d="M50 0l390 700h110l-390 -700h-110zM350 0v65q53 41 89 77.5t36 62.5q0 15 -11 27.5t-34 12.5h-70v49q15 5 39 8t46 3q60 0 87.5 -25.5t27.5 -74.5q0 -34 -27.5 -67t-87.5 -78h115v-60h-210zM120 400v240h-55v48q15 5 42.5 8.5t57.5 3.5h40v-300h-85z" />
    <glyph glyph-name="threequarters" unicode="&#xbe;" horiz-adv-x="605" 
d="M55 0l390 700h110l-390 -700h-110zM440 0v55h-140v60l140 185h85v-185h25v-60h-25v-55h-85zM375 115h65v85zM120 395q-22 0 -43.5 3.5t-36.5 7.5v49h80q23 0 34 10t11 25t-10.5 25t-29.5 10h-50v60h45q19 0 27 9.5t8 20.5t-9 20.5t-32 9.5h-74v49q14 5 36.5 8t48.5 3
q53 0 84 -18t31 -67q0 -26 -15 -41t-30 -19q19 -4 37 -22.5t18 -52.5q0 -52 -33 -71t-97 -19z" />
    <glyph glyph-name="questiondown" unicode="&#xbf;" horiz-adv-x="395" 
d="M225 -10q-94 0 -144.5 50t-50.5 140q0 51 15 86.5t38 63t46.5 53.5t40.5 57.5t20 74.5h100q0 -56 -14 -93t-35 -64.5t-42 -52t-35 -54t-14 -71.5q0 -56 28 -85.5t77 -29.5h130v-55q-22 -7 -64.5 -13.5t-95.5 -6.5zM180 590v120h120v-120h-120z" />
    <glyph glyph-name="Agrave" unicode="&#xc0;" horiz-adv-x="540" 
d="M15 0l180 700h150l180 -700h-125l-44 175h-172l-44 -175h-125zM200 255h139l-67 285h-4zM225 760l-75 130h115l35 -130h-75z" />
    <glyph glyph-name="Aacute" unicode="&#xc1;" horiz-adv-x="540" 
d="M15 0l180 700h150l180 -700h-125l-44 175h-172l-44 -175h-125zM200 255h139l-67 285h-4zM237 760l35 130h115l-75 -130h-75z" />
    <glyph glyph-name="Acircumflex" unicode="&#xc2;" horiz-adv-x="540" 
d="M15 0l180 700h150l180 -700h-125l-44 175h-172l-44 -175h-125zM200 255h139l-67 285h-4zM137 750l80 130h105l80 -130h-77l-56 70l-56 -70h-76z" />
    <glyph glyph-name="Atilde" unicode="&#xc3;" horiz-adv-x="540" 
d="M15 0l180 700h150l180 -700h-125l-44 175h-172l-44 -175h-125zM200 255h139l-67 285h-4zM320 760q-17 0 -29.5 7.5t-23 17.5t-19.5 17.5t-18 7.5q-25 0 -25 -40h-60q0 68 20.5 94t54.5 26q17 0 29.5 -7.5t23 -17.5t19.5 -17.5t18 -7.5q25 0 25 40h60q0 -67 -20.5 -93.5
t-54.5 -26.5z" />
    <glyph glyph-name="Adieresis" unicode="&#xc4;" horiz-adv-x="540" 
d="M15 0l180 700h150l180 -700h-125l-44 175h-172l-44 -175h-125zM200 255h139l-67 285h-4zM295 770v120h110v-120h-110zM135 770v120h110v-120h-110z" />
    <glyph glyph-name="Aring" unicode="&#xc5;" horiz-adv-x="540" 
d="M15 0l180 700h150l180 -700h-125l-44 175h-172l-44 -175h-125zM200 255h139l-67 285h-4zM270 735q-41 0 -68 24t-27 61q0 38 27 61.5t68 23.5t68 -23.5t27 -61.5q0 -37 -27 -61t-68 -24zM270 790q11 0 20.5 7.5t9.5 22.5t-9.5 22.5t-20.5 7.5t-20.5 -7.5t-9.5 -22.5
t9.5 -22.5t20.5 -7.5z" />
    <glyph glyph-name="AE" unicode="&#xc6;" horiz-adv-x="755" 
d="M0 0l240 700h475v-80h-245v-215h215v-80h-215v-245h245v-80h-365v175h-170l-61 -175h-119zM207 255h143v365h-19z" />
    <glyph glyph-name="Ccedilla" unicode="&#xc7;" horiz-adv-x="455" 
d="M280 -10q-77 0 -129.5 31.5t-79 110t-26.5 218.5t26 218.5t76.5 110t122.5 31.5q53 0 95.5 -6t64.5 -14v-55h-120q-42 0 -75 -24.5t-51.5 -86t-18.5 -174.5q0 -112 19 -174t54 -86.5t82 -24.5h120v-55q-22 -7 -64.5 -13.5t-95.5 -6.5zM279 -170q-37 0 -56 7.5l-19 7.5v34
h65q23 0 29 6.5t6 14.5t-5.5 14.5t-24.5 6.5h-55v94h55v-45h15q45 0 67.5 -20t22.5 -50t-25.5 -50t-74.5 -20z" />
    <glyph glyph-name="Egrave" unicode="&#xc8;" 
d="M70 0v700h365v-80h-245v-215h215v-80h-215v-245h245v-80h-365zM227 760l-75 130h115l35 -130h-75z" />
    <glyph glyph-name="Eacute" unicode="&#xc9;" 
d="M70 0v700h365v-80h-245v-215h215v-80h-215v-245h245v-80h-365zM205 760l35 130h115l-75 -130h-75z" />
    <glyph glyph-name="Ecircumflex" unicode="&#xca;" 
d="M70 0v700h365v-80h-245v-215h215v-80h-215v-245h245v-80h-365zM115 750l80 130h105l80 -130h-77l-56 70l-56 -70h-76z" />
    <glyph glyph-name="Edieresis" unicode="&#xcb;" 
d="M70 0v700h365v-80h-245v-215h215v-80h-215v-245h245v-80h-365zM277 770v120h110v-120h-110zM117 770v120h110v-120h-110z" />
    <glyph glyph-name="Igrave" unicode="&#xcc;" horiz-adv-x="260" 
d="M70 0v700h120v-700h-120zM92 760l-75 130h115l35 -130h-75z" />
    <glyph glyph-name="Iacute" unicode="&#xcd;" horiz-adv-x="260" 
d="M70 0v700h120v-700h-120zM97 760l35 130h115l-75 -130h-75z" />
    <glyph glyph-name="Icircumflex" unicode="&#xce;" horiz-adv-x="260" 
d="M70 0v700h120v-700h-120zM-5 750l80 130h105l80 -130h-77l-56 70l-56 -70h-76z" />
    <glyph glyph-name="Idieresis" unicode="&#xcf;" horiz-adv-x="260" 
d="M70 0v700h120v-700h-120zM155 770v120h110v-120h-110zM-5 770v120h110v-120h-110z" />
    <glyph glyph-name="Eth" unicode="&#xd0;" horiz-adv-x="560" 
d="M260 -10q-56 0 -96.5 4.5t-78.5 15.5v305h-75v80h75v295q38 11 78.5 15.5t96.5 4.5q83 0 139.5 -34t86 -112.5t29.5 -213.5t-29.5 -214t-86 -112.5t-139.5 -33.5zM205 65h55q41 0 71 24.5t47 86.5t17 174q0 113 -17 174.5t-47 86t-71 24.5h-55v-240h105v-80h-105v-250z
" />
    <glyph glyph-name="Ntilde" unicode="&#xd1;" horiz-adv-x="570" 
d="M70 0v700h120l190 -460h5v460h115v-700h-120l-190 460h-5v-460h-115zM333 760q-17 0 -29.5 7.5t-23 17.5t-19.5 17.5t-18 7.5q-25 0 -25 -40h-60q0 68 20.5 94t54.5 26q17 0 29.5 -7.5t23 -17.5t19.5 -17.5t18 -7.5q25 0 25 40h60q0 -67 -20.5 -93.5t-54.5 -26.5z" />
    <glyph glyph-name="Ograve" unicode="&#xd2;" horiz-adv-x="550" 
d="M275 -10q-70 0 -121.5 33.5t-80 112.5t-28.5 214t28.5 213.5t80 112.5t121.5 34t121.5 -34t80 -112.5t28.5 -213.5t-28.5 -214t-80 -112.5t-121.5 -33.5zM275 60q21 0 40.5 13.5t35 45.5t25 88.5t9.5 142.5t-9.5 142.5t-25 88.5t-35 45.5t-40.5 13.5t-40.5 -13.5
t-35 -45.5t-25 -88.5t-9.5 -142.5t9.5 -142.5t25 -88.5t35 -45.5t40.5 -13.5zM230 760l-75 130h115l35 -130h-75z" />
    <glyph glyph-name="Oacute" unicode="&#xd3;" horiz-adv-x="550" 
d="M275 -10q-70 0 -121.5 33.5t-80 112.5t-28.5 214t28.5 213.5t80 112.5t121.5 34t121.5 -34t80 -112.5t28.5 -213.5t-28.5 -214t-80 -112.5t-121.5 -33.5zM275 60q21 0 40.5 13.5t35 45.5t25 88.5t9.5 142.5t-9.5 142.5t-25 88.5t-35 45.5t-40.5 13.5t-40.5 -13.5
t-35 -45.5t-25 -88.5t-9.5 -142.5t9.5 -142.5t25 -88.5t35 -45.5t40.5 -13.5zM242 760l35 130h115l-75 -130h-75z" />
    <glyph glyph-name="Ocircumflex" unicode="&#xd4;" horiz-adv-x="550" 
d="M275 -10q-70 0 -121.5 33.5t-80 112.5t-28.5 214t28.5 213.5t80 112.5t121.5 34t121.5 -34t80 -112.5t28.5 -213.5t-28.5 -214t-80 -112.5t-121.5 -33.5zM275 60q21 0 40.5 13.5t35 45.5t25 88.5t9.5 142.5t-9.5 142.5t-25 88.5t-35 45.5t-40.5 13.5t-40.5 -13.5
t-35 -45.5t-25 -88.5t-9.5 -142.5t9.5 -142.5t25 -88.5t35 -45.5t40.5 -13.5zM142 750l80 130h105l80 -130h-77l-56 70l-56 -70h-76z" />
    <glyph glyph-name="Otilde" unicode="&#xd5;" horiz-adv-x="550" 
d="M275 -10q-70 0 -121.5 33.5t-80 112.5t-28.5 214t28.5 213.5t80 112.5t121.5 34t121.5 -34t80 -112.5t28.5 -213.5t-28.5 -214t-80 -112.5t-121.5 -33.5zM275 60q21 0 40.5 13.5t35 45.5t25 88.5t9.5 142.5t-9.5 142.5t-25 88.5t-35 45.5t-40.5 13.5t-40.5 -13.5
t-35 -45.5t-25 -88.5t-9.5 -142.5t9.5 -142.5t25 -88.5t35 -45.5t40.5 -13.5zM325 760q-17 0 -29.5 7.5t-23 17.5t-19.5 17.5t-18 7.5q-25 0 -25 -40h-60q0 68 20.5 94t54.5 26q17 0 29.5 -7.5t23 -17.5t19.5 -17.5t18 -7.5q25 0 25 40h60q0 -67 -20.5 -93.5t-54.5 -26.5z
" />
    <glyph glyph-name="Odieresis" unicode="&#xd6;" horiz-adv-x="550" 
d="M275 -10q-70 0 -121.5 33.5t-80 112.5t-28.5 214t28.5 213.5t80 112.5t121.5 34t121.5 -34t80 -112.5t28.5 -213.5t-28.5 -214t-80 -112.5t-121.5 -33.5zM275 60q21 0 40.5 13.5t35 45.5t25 88.5t9.5 142.5t-9.5 142.5t-25 88.5t-35 45.5t-40.5 13.5t-40.5 -13.5
t-35 -45.5t-25 -88.5t-9.5 -142.5t9.5 -142.5t25 -88.5t35 -45.5t40.5 -13.5zM300 770v120h110v-120h-110zM140 770v120h110v-120h-110z" />
    <glyph glyph-name="multiply" unicode="&#xd7;" horiz-adv-x="420" 
d="M100 160l-60 60l110 110l-110 110l60 60l110 -110l110 110l60 -60l-110 -110l110 -110l-60 -60l-110 110z" />
    <glyph glyph-name="Oslash" unicode="&#xd8;" horiz-adv-x="550" 
d="M275 -10q-51 0 -92 17t-71 55l-37 -52l-50 40l53 75q-16 41 -24.5 96.5t-8.5 128.5q0 135 28.5 213.5t80 112.5t121.5 34q50 0 91.5 -17t71.5 -56l37 53l50 -40l-53 -75q16 -41 24.5 -96.5t8.5 -128.5q0 -135 -28.5 -214t-80 -112.5t-121.5 -33.5zM275 60q21 0 40.5 13.5
t35 45.5t25 88.5t9.5 142.5q0 27 -1 50.5t-3 44.5l-198 -281q16 -59 40.5 -81.5t51.5 -22.5zM169 254l197 281q-15 60 -40 82.5t-51 22.5q-21 0 -40.5 -13.5t-35 -45.5t-25 -88.5t-9.5 -142.5q0 -27 1 -51t3 -45z" />
    <glyph glyph-name="Ugrave" unicode="&#xd9;" horiz-adv-x="550" 
d="M275 -10q-72 0 -120 25t-71.5 80t-23.5 145v460h120v-460q0 -70 12.5 -109t34 -55t48.5 -16q28 0 49 16t33.5 55t12.5 109v460h120v-460q0 -90 -23.5 -145t-71 -80t-120.5 -25zM235 760l-75 130h115l35 -130h-75z" />
    <glyph glyph-name="Uacute" unicode="&#xda;" horiz-adv-x="550" 
d="M275 -10q-72 0 -120 25t-71.5 80t-23.5 145v460h120v-460q0 -70 12.5 -109t34 -55t48.5 -16q28 0 49 16t33.5 55t12.5 109v460h120v-460q0 -90 -23.5 -145t-71 -80t-120.5 -25zM242 760l35 130h115l-75 -130h-75z" />
    <glyph glyph-name="Ucircumflex" unicode="&#xdb;" horiz-adv-x="550" 
d="M275 -10q-72 0 -120 25t-71.5 80t-23.5 145v460h120v-460q0 -70 12.5 -109t34 -55t48.5 -16q28 0 49 16t33.5 55t12.5 109v460h120v-460q0 -90 -23.5 -145t-71 -80t-120.5 -25zM142 750l80 130h105l80 -130h-77l-56 70l-56 -70h-76z" />
    <glyph glyph-name="Udieresis" unicode="&#xdc;" horiz-adv-x="550" 
d="M275 -10q-72 0 -120 25t-71.5 80t-23.5 145v460h120v-460q0 -70 12.5 -109t34 -55t48.5 -16q28 0 49 16t33.5 55t12.5 109v460h120v-460q0 -90 -23.5 -145t-71 -80t-120.5 -25zM300 770v120h110v-120h-110zM140 770v120h110v-120h-110z" />
    <glyph glyph-name="Yacute" unicode="&#xdd;" horiz-adv-x="480" 
d="M180 0v210l-175 490h125l110 -341l110 341h125l-175 -490v-210h-120zM207 760l35 130h115l-75 -130h-75z" />
    <glyph glyph-name="Thorn" unicode="&#xde;" horiz-adv-x="525" 
d="M70 -10v720h120v-75q158 -7 229 -80.5t71 -204.5t-71 -204t-229 -81v-75h-120zM190 140q83 4 131.5 58.5t48.5 151.5q0 98 -48.5 152t-131.5 58v-420z" />
    <glyph glyph-name="germandbls" unicode="&#xdf;" horiz-adv-x="550" 
d="M340 -10q-22 0 -52 6.5t-53 13.5v50h85q34 0 59.5 17t25.5 58q0 30 -16.5 50t-41 36.5t-49.5 35t-41.5 44t-16.5 64.5q0 34 16 57t36.5 41.5t36.5 38.5t16 48q0 45 -24.5 65t-50.5 20q-34 0 -59.5 -32.5t-25.5 -107.5v-495h-120v495q0 109 52 162t153 53q94 0 144.5 -46
t50.5 -114q0 -39 -16 -63.5t-36.5 -42t-36.5 -35.5t-16 -44q0 -21 16.5 -37.5t41 -33.5t49.5 -38t41.5 -50t16.5 -71q0 -57 -22.5 -88.5t-63.5 -44t-99 -12.5z" />
    <glyph glyph-name="agrave" unicode="&#xe0;" 
d="M195 -10q-42 0 -77.5 13t-56.5 47.5t-21 99.5t21.5 99.5t59 47.5t84.5 13q23 0 44.5 -3t40.5 -7v40q0 60 -28 80t-77 20h-100v50q23 8 56.5 14t63.5 6q68 0 113.5 -13.5t68.5 -50t23 -106.5v-340h-85l-15 30h-5q-16 -15 -42.5 -27.5t-67.5 -12.5zM235 60q19 0 33.5 6.5
t21.5 13.5v160h-55q-17 0 -34.5 -8t-29 -27.5t-11.5 -54.5t11.5 -54.5t29 -27.5t34.5 -8zM193 560l-75 130h115l35 -130h-75z" />
    <glyph glyph-name="aacute" unicode="&#xe1;" 
d="M195 -10q-42 0 -77.5 13t-56.5 47.5t-21 99.5t21.5 99.5t59 47.5t84.5 13q23 0 44.5 -3t40.5 -7v40q0 60 -28 80t-77 20h-100v50q23 8 56.5 14t63.5 6q68 0 113.5 -13.5t68.5 -50t23 -106.5v-340h-85l-15 30h-5q-16 -15 -42.5 -27.5t-67.5 -12.5zM235 60q19 0 33.5 6.5
t21.5 13.5v160h-55q-17 0 -34.5 -8t-29 -27.5t-11.5 -54.5t11.5 -54.5t29 -27.5t34.5 -8zM205 560l35 130h115l-75 -130h-75z" />
    <glyph glyph-name="acircumflex" unicode="&#xe2;" 
d="M195 -10q-42 0 -77.5 13t-56.5 47.5t-21 99.5t21.5 99.5t59 47.5t84.5 13q23 0 44.5 -3t40.5 -7v40q0 60 -28 80t-77 20h-100v50q23 8 56.5 14t63.5 6q68 0 113.5 -13.5t68.5 -50t23 -106.5v-340h-85l-15 30h-5q-16 -15 -42.5 -27.5t-67.5 -12.5zM235 60q19 0 33.5 6.5
t21.5 13.5v160h-55q-17 0 -34.5 -8t-29 -27.5t-11.5 -54.5t11.5 -54.5t29 -27.5t34.5 -8zM105 550l80 130h105l80 -130h-77l-56 70l-56 -70h-76z" />
    <glyph glyph-name="atilde" unicode="&#xe3;" 
d="M195 -10q-42 0 -77.5 13t-56.5 47.5t-21 99.5t21.5 99.5t59 47.5t84.5 13q23 0 44.5 -3t40.5 -7v40q0 60 -28 80t-77 20h-100v50q23 8 56.5 14t63.5 6q68 0 113.5 -13.5t68.5 -50t23 -106.5v-340h-85l-15 30h-5q-16 -15 -42.5 -27.5t-67.5 -12.5zM235 60q19 0 33.5 6.5
t21.5 13.5v160h-55q-17 0 -34.5 -8t-29 -27.5t-11.5 -54.5t11.5 -54.5t29 -27.5t34.5 -8zM288 560q-17 0 -29.5 7.5t-23 17.5t-19.5 17.5t-18 7.5q-25 0 -25 -40h-60q0 68 20.5 94t54.5 26q17 0 29.5 -7.5t23 -17.5t19.5 -17.5t18 -7.5q25 0 25 40h60q0 -67 -20.5 -93.5
t-54.5 -26.5z" />
    <glyph glyph-name="adieresis" unicode="&#xe4;" 
d="M195 -10q-42 0 -77.5 13t-56.5 47.5t-21 99.5t21.5 99.5t59 47.5t84.5 13q23 0 44.5 -3t40.5 -7v40q0 60 -28 80t-77 20h-100v50q23 8 56.5 14t63.5 6q68 0 113.5 -13.5t68.5 -50t23 -106.5v-340h-85l-15 30h-5q-16 -15 -42.5 -27.5t-67.5 -12.5zM235 60q19 0 33.5 6.5
t21.5 13.5v160h-55q-17 0 -34.5 -8t-29 -27.5t-11.5 -54.5t11.5 -54.5t29 -27.5t34.5 -8zM263 570v120h110v-120h-110zM103 570v120h110v-120h-110z" />
    <glyph glyph-name="aring" unicode="&#xe5;" 
d="M195 -10q-42 0 -77.5 13t-56.5 47.5t-21 99.5t21.5 99.5t59 47.5t84.5 13q23 0 44.5 -3t40.5 -7v40q0 60 -28 80t-77 20h-100v50q23 8 56.5 14t63.5 6q68 0 113.5 -13.5t68.5 -50t23 -106.5v-340h-85l-15 30h-5q-16 -15 -42.5 -27.5t-67.5 -12.5zM235 60q19 0 33.5 6.5
t21.5 13.5v160h-55q-17 0 -34.5 -8t-29 -27.5t-11.5 -54.5t11.5 -54.5t29 -27.5t34.5 -8zM238 535q-41 0 -68 24t-27 61q0 38 27 61.5t68 23.5t68 -23.5t27 -61.5q0 -37 -27 -61t-68 -24zM238 590q11 0 20.5 7.5t9.5 22.5t-9.5 22.5t-20.5 7.5t-20.5 -7.5t-9.5 -22.5
t9.5 -22.5t20.5 -7.5z" />
    <glyph glyph-name="ae" unicode="&#xe6;" horiz-adv-x="710" 
d="M205 -10q-47 0 -84.5 12.5t-59 45t-21.5 92.5t21.5 92.5t59 45t84.5 12.5q23 0 44.5 -3t40.5 -7v60q0 60 -28 80t-77 20h-100v50q23 8 56.5 14t63.5 6q56 0 92 -17t58 -43q23 26 53.5 43t71.5 17q60 0 102.5 -26.5t65 -83.5t22.5 -150v-30h-260v-10q0 -84 31.5 -117
t93.5 -33h110v-50q-22 -7 -57 -13.5t-73 -6.5q-64 0 -100.5 17t-59.5 43q-22 -26 -56 -43t-94 -17zM235 60q13 0 23.5 3t18.5 7.5t13 9.5v140h-55q-26 0 -50.5 -17.5t-24.5 -62.5t24.5 -62.5t50.5 -17.5zM410 290h140q0 63 -9 96.5t-25 46t-36 12.5t-36 -12.5t-25 -46
t-9 -96.5z" />
    <glyph glyph-name="ccedilla" unicode="&#xe7;" horiz-adv-x="395" 
d="M250 -10q-70 0 -116.5 25.5t-70 82.5t-23.5 152t23 152t67.5 82.5t109.5 25.5q38 0 73 -6t57 -14v-50h-110q-30 0 -52.5 -16t-35 -57.5t-12.5 -116.5t13 -116t37.5 -57.5t59.5 -16.5h110v-50q-22 -7 -57 -13.5t-73 -6.5zM239 -170q-37 0 -56 7.5l-19 7.5v34h65
q23 0 29 6.5t6 14.5t-5.5 14.5t-24.5 6.5h-55v94h55v-45h15q45 0 67.5 -20t22.5 -50t-25.5 -50t-74.5 -20z" />
    <glyph glyph-name="egrave" unicode="&#xe8;" horiz-adv-x="460" 
d="M265 -10q-77 0 -127 25.5t-74 82.5t-24 152t22.5 152t65 82.5t102.5 25.5t102.5 -25.5t65 -82.5t22.5 -152v-35h-260q0 -86 30.5 -120.5t94.5 -34.5h110v-50q-22 -7 -57 -13.5t-73 -6.5zM160 285h140q0 65 -9 99.5t-25 47.5t-36 13t-36 -13t-25 -47.5t-9 -99.5zM185 560
l-75 130h115l35 -130h-75z" />
    <glyph glyph-name="eacute" unicode="&#xe9;" horiz-adv-x="460" 
d="M265 -10q-77 0 -127 25.5t-74 82.5t-24 152t22.5 152t65 82.5t102.5 25.5t102.5 -25.5t65 -82.5t22.5 -152v-35h-260q0 -86 30.5 -120.5t94.5 -34.5h110v-50q-22 -7 -57 -13.5t-73 -6.5zM160 285h140q0 65 -9 99.5t-25 47.5t-36 13t-36 -13t-25 -47.5t-9 -99.5zM197 560
l35 130h115l-75 -130h-75z" />
    <glyph glyph-name="ecircumflex" unicode="&#xea;" horiz-adv-x="460" 
d="M265 -10q-77 0 -127 25.5t-74 82.5t-24 152t22.5 152t65 82.5t102.5 25.5t102.5 -25.5t65 -82.5t22.5 -152v-35h-260q0 -86 30.5 -120.5t94.5 -34.5h110v-50q-22 -7 -57 -13.5t-73 -6.5zM160 285h140q0 65 -9 99.5t-25 47.5t-36 13t-36 -13t-25 -47.5t-9 -99.5zM97 550
l80 130h105l80 -130h-77l-56 70l-56 -70h-76z" />
    <glyph glyph-name="edieresis" unicode="&#xeb;" horiz-adv-x="460" 
d="M265 -10q-77 0 -127 25.5t-74 82.5t-24 152t22.5 152t65 82.5t102.5 25.5t102.5 -25.5t65 -82.5t22.5 -152v-35h-260q0 -86 30.5 -120.5t94.5 -34.5h110v-50q-22 -7 -57 -13.5t-73 -6.5zM160 285h140q0 65 -9 99.5t-25 47.5t-36 13t-36 -13t-25 -47.5t-9 -99.5zM255 570
v120h110v-120h-110zM95 570v120h110v-120h-110z" />
    <glyph glyph-name="igrave" unicode="&#xec;" horiz-adv-x="260" 
d="M70 0v500h120v-500h-120zM85 560l-75 130h115l35 -130h-75z" />
    <glyph glyph-name="iacute" unicode="&#xed;" horiz-adv-x="260" 
d="M70 0v500h120v-500h-120zM97 560l35 130h115l-75 -130h-75z" />
    <glyph glyph-name="icircumflex" unicode="&#xee;" horiz-adv-x="260" 
d="M70 0v500h120v-500h-120zM-3 550l80 130h105l80 -130h-77l-56 70l-56 -70h-76z" />
    <glyph glyph-name="idieresis" unicode="&#xef;" horiz-adv-x="260" 
d="M70 0v500h120v-500h-120zM155 570v120h110v-120h-110zM-5 570v120h110v-120h-110z" />
    <glyph glyph-name="eth" unicode="&#xf0;" horiz-adv-x="485" 
d="M240 -10q-97 0 -148.5 54.5t-51.5 170.5t50 170.5t140 54.5q30 0 52.5 -7t37.5 -18q0 38 -5 70t-20 54l-50 -60l-50 41l55 70q-26 23 -72 43t-99 27l6 50q68 -4 125.5 -19t94.5 -41l55 67l50 -41l-55 -65q38 -38 61.5 -106t23.5 -155v-135q0 -116 -51 -170.5t-149 -54.5z
M240 55q20 0 38.5 15t30 50t11.5 95v135q-7 8 -22 14t-38 6q-45 0 -72.5 -34.5t-27.5 -120.5q0 -60 11.5 -95t30 -50t38.5 -15z" />
    <glyph glyph-name="ntilde" unicode="&#xf1;" horiz-adv-x="505" 
d="M65 0v500h85l15 -30h5q16 15 43 27.5t72 12.5q43 0 78 -13t56 -47.5t21 -99.5v-350h-120v350q0 53 -25 71.5t-55 18.5q-19 0 -33 -6t-22 -14v-420h-120zM292 560q-17 0 -29.5 7.5t-23 17.5t-19.5 17.5t-18 7.5q-25 0 -25 -40h-60q0 68 20.5 94t54.5 26q17 0 29.5 -7.5
t23 -17.5t19.5 -17.5t18 -7.5q25 0 25 40h60q0 -67 -20.5 -93.5t-54.5 -26.5z" />
    <glyph glyph-name="ograve" unicode="&#xf2;" horiz-adv-x="480" 
d="M240 -10q-65 0 -109.5 25.5t-67.5 82.5t-23 152t23 152t67.5 82.5t109.5 25.5t109.5 -25.5t67.5 -82.5t23 -152t-23 -152t-67.5 -82.5t-109.5 -25.5zM240 55q23 0 41 16.5t28.5 59t10.5 119.5q0 78 -10.5 120t-28.5 58.5t-41 16.5q-22 0 -40.5 -16.5t-29 -58.5
t-10.5 -120q0 -77 10.5 -119.5t29 -59t40.5 -16.5zM195 560l-75 130h115l35 -130h-75z" />
    <glyph glyph-name="oacute" unicode="&#xf3;" horiz-adv-x="480" 
d="M240 -10q-65 0 -109.5 25.5t-67.5 82.5t-23 152t23 152t67.5 82.5t109.5 25.5t109.5 -25.5t67.5 -82.5t23 -152t-23 -152t-67.5 -82.5t-109.5 -25.5zM240 55q23 0 41 16.5t28.5 59t10.5 119.5q0 78 -10.5 120t-28.5 58.5t-41 16.5q-22 0 -40.5 -16.5t-29 -58.5
t-10.5 -120q0 -77 10.5 -119.5t29 -59t40.5 -16.5zM207 560l35 130h115l-75 -130h-75z" />
    <glyph glyph-name="ocircumflex" unicode="&#xf4;" horiz-adv-x="480" 
d="M240 -10q-65 0 -109.5 25.5t-67.5 82.5t-23 152t23 152t67.5 82.5t109.5 25.5t109.5 -25.5t67.5 -82.5t23 -152t-23 -152t-67.5 -82.5t-109.5 -25.5zM240 55q23 0 41 16.5t28.5 59t10.5 119.5q0 78 -10.5 120t-28.5 58.5t-41 16.5q-22 0 -40.5 -16.5t-29 -58.5
t-10.5 -120q0 -77 10.5 -119.5t29 -59t40.5 -16.5zM107 550l80 130h105l80 -130h-77l-56 70l-56 -70h-76z" />
    <glyph glyph-name="otilde" unicode="&#xf5;" horiz-adv-x="480" 
d="M240 -10q-65 0 -109.5 25.5t-67.5 82.5t-23 152t23 152t67.5 82.5t109.5 25.5t109.5 -25.5t67.5 -82.5t23 -152t-23 -152t-67.5 -82.5t-109.5 -25.5zM240 55q23 0 41 16.5t28.5 59t10.5 119.5q0 78 -10.5 120t-28.5 58.5t-41 16.5q-22 0 -40.5 -16.5t-29 -58.5
t-10.5 -120q0 -77 10.5 -119.5t29 -59t40.5 -16.5zM290 560q-17 0 -29.5 7.5t-23 17.5t-19.5 17.5t-18 7.5q-25 0 -25 -40h-60q0 68 20.5 94t54.5 26q17 0 29.5 -7.5t23 -17.5t19.5 -17.5t18 -7.5q25 0 25 40h60q0 -67 -20.5 -93.5t-54.5 -26.5z" />
    <glyph glyph-name="odieresis" unicode="&#xf6;" horiz-adv-x="480" 
d="M240 -10q-65 0 -109.5 25.5t-67.5 82.5t-23 152t23 152t67.5 82.5t109.5 25.5t109.5 -25.5t67.5 -82.5t23 -152t-23 -152t-67.5 -82.5t-109.5 -25.5zM240 55q23 0 41 16.5t28.5 59t10.5 119.5q0 78 -10.5 120t-28.5 58.5t-41 16.5q-22 0 -40.5 -16.5t-29 -58.5
t-10.5 -120q0 -77 10.5 -119.5t29 -59t40.5 -16.5zM265 570v120h110v-120h-110zM105 570v120h110v-120h-110z" />
    <glyph glyph-name="divide" unicode="&#xf7;" horiz-adv-x="450" 
d="M30 255v90h390v-90h-390zM175 85v110h100v-110h-100zM175 405v110h100v-110h-100z" />
    <glyph glyph-name="oslash" unicode="&#xf8;" horiz-adv-x="490" 
d="M245 -10q-47 0 -83 12.5t-62 40.5l-30 -33l-45 50l40 44q-10 29 -15 65t-5 81q0 95 23 152t67.5 82.5t109.5 25.5q47 0 83 -12.5t61 -41.5l31 34l45 -50l-41 -45q11 -28 16 -64t5 -81q0 -95 -23 -152t-67.5 -82.5t-109.5 -25.5zM245 55q23 0 41 16.5t28.5 59t10.5 119.5
v19t-1 18l-148 -161q11 -40 29 -55.5t40 -15.5zM165 213l148 161q-10 41 -28 56t-40 15t-40.5 -16.5t-29 -58.5t-10.5 -120v-18.5v-18.5z" />
    <glyph glyph-name="ugrave" unicode="&#xf9;" horiz-adv-x="505" 
d="M220 -10q-42 0 -77.5 13t-56.5 47.5t-21 99.5v350h120v-350q0 -52 25 -71t55 -19q19 0 33.5 6.5t21.5 13.5v420h120v-500h-85l-15 30h-5q-16 -15 -43 -27.5t-72 -12.5zM208 560l-75 130h115l35 -130h-75z" />
    <glyph glyph-name="uacute" unicode="&#xfa;" horiz-adv-x="505" 
d="M220 -10q-42 0 -77.5 13t-56.5 47.5t-21 99.5v350h120v-350q0 -52 25 -71t55 -19q19 0 33.5 6.5t21.5 13.5v420h120v-500h-85l-15 30h-5q-16 -15 -43 -27.5t-72 -12.5zM220 560l35 130h115l-75 -130h-75z" />
    <glyph glyph-name="ucircumflex" unicode="&#xfb;" horiz-adv-x="505" 
d="M220 -10q-42 0 -77.5 13t-56.5 47.5t-21 99.5v350h120v-350q0 -52 25 -71t55 -19q19 0 33.5 6.5t21.5 13.5v420h120v-500h-85l-15 30h-5q-16 -15 -43 -27.5t-72 -12.5zM123 550l80 130h105l80 -130h-77l-56 70l-56 -70h-76z" />
    <glyph glyph-name="udieresis" unicode="&#xfc;" horiz-adv-x="505" 
d="M220 -10q-42 0 -77.5 13t-56.5 47.5t-21 99.5v350h120v-350q0 -52 25 -71t55 -19q19 0 33.5 6.5t21.5 13.5v420h120v-500h-85l-15 30h-5q-16 -15 -43 -27.5t-72 -12.5zM278 570v120h110v-120h-110zM118 570v120h110v-120h-110z" />
    <glyph glyph-name="yacute" unicode="&#xfd;" horiz-adv-x="505" 
d="M225 -210q-37 0 -72 6.5t-58 13.5v50h110q56 0 85.5 35t29.5 125q-19 -15 -44.5 -22.5t-55.5 -7.5q-42 0 -77.5 13t-56.5 47.5t-21 99.5v350h120v-350q0 -52 25 -71t55 -19q19 0 33.5 6.5t21.5 13.5v420h120v-460q0 -90 -23.5 -145t-71 -80t-120.5 -25zM220 560l35 130
h115l-75 -130h-75z" />
    <glyph glyph-name="thorn" unicode="&#xfe;" horiz-adv-x="495" 
d="M70 -200v900h120v-215q16 11 37.5 18t47.5 7q55 0 95.5 -25.5t62.5 -82.5t22 -152t-22 -152t-62.5 -82.5t-95.5 -25.5q-26 0 -47.5 7t-37.5 18v-215h-120zM245 60q25 0 45.5 16.5t32.5 57.5t12 116t-12 116.5t-32.5 57.5t-45.5 16q-19 0 -33 -6t-22 -14v-340
q8 -7 22 -13.5t33 -6.5z" />
    <glyph glyph-name="ydieresis" unicode="&#xff;" horiz-adv-x="505" 
d="M225 -210q-37 0 -72 6.5t-58 13.5v50h110q56 0 85.5 35t29.5 125q-19 -15 -44.5 -22.5t-55.5 -7.5q-42 0 -77.5 13t-56.5 47.5t-21 99.5v350h120v-350q0 -52 25 -71t55 -19q19 0 33.5 6.5t21.5 13.5v420h120v-460q0 -90 -23.5 -145t-71 -80t-120.5 -25zM278 570v120h110
v-120h-110zM118 570v120h110v-120h-110z" />
    <glyph glyph-name="Amacron" unicode="&#x100;" horiz-adv-x="540" 
d="M15 0l180 700h150l180 -700h-125l-44 175h-172l-44 -175h-125zM200 255h139l-67 285h-4zM150 785v70h240v-70h-240z" />
    <glyph glyph-name="amacron" unicode="&#x101;" 
d="M195 -10q-42 0 -77.5 13t-56.5 47.5t-21 99.5t21.5 99.5t59 47.5t84.5 13q23 0 44.5 -3t40.5 -7v40q0 60 -28 80t-77 20h-100v50q23 8 56.5 14t63.5 6q68 0 113.5 -13.5t68.5 -50t23 -106.5v-340h-85l-15 30h-5q-16 -15 -42.5 -27.5t-67.5 -12.5zM235 60q19 0 33.5 6.5
t21.5 13.5v160h-55q-17 0 -34.5 -8t-29 -27.5t-11.5 -54.5t11.5 -54.5t29 -27.5t34.5 -8zM118 600v70h240v-70h-240z" />
    <glyph glyph-name="Abreve" unicode="&#x102;" horiz-adv-x="540" 
d="M15 0l180 700h150l180 -700h-125l-44 175h-172l-44 -175h-125zM200 255h139l-67 285h-4zM270 765q-49 0 -83 20.5t-57 54.5l50 50q15 -15 37.5 -27.5t52.5 -12.5t52.5 12.5t37.5 27.5l50 -50q-22 -34 -56.5 -54.5t-83.5 -20.5z" />
    <glyph glyph-name="abreve" unicode="&#x103;" 
d="M195 -10q-42 0 -77.5 13t-56.5 47.5t-21 99.5t21.5 99.5t59 47.5t84.5 13q23 0 44.5 -3t40.5 -7v40q0 60 -28 80t-77 20h-100v50q23 8 56.5 14t63.5 6q68 0 113.5 -13.5t68.5 -50t23 -106.5v-340h-85l-15 30h-5q-16 -15 -42.5 -27.5t-67.5 -12.5zM235 60q19 0 33.5 6.5
t21.5 13.5v160h-55q-17 0 -34.5 -8t-29 -27.5t-11.5 -54.5t11.5 -54.5t29 -27.5t34.5 -8zM238 565q-49 0 -83 20.5t-57 54.5l50 50q15 -15 37.5 -27.5t52.5 -12.5t52.5 12.5t37.5 27.5l50 -50q-22 -34 -56.5 -54.5t-83.5 -20.5z" />
    <glyph glyph-name="Aogonek" unicode="&#x104;" horiz-adv-x="540" 
d="M15 0l180 700h150l180 -700h-125l-44 175h-172l-44 -175h-125zM200 255h139l-67 285h-4zM483 -159q-41 0 -65.5 23t-24.5 57q0 25 6.5 43t13 27.5l6.5 9.5h50v-45q0 -26 14 -40.5t40 -14.5h36v-45l-21 -7.5t-55 -7.5z" />
    <glyph glyph-name="aogonek" unicode="&#x105;" 
d="M195 -10q-42 0 -77.5 13t-56.5 47.5t-21 99.5t21.5 99.5t59 47.5t84.5 13q23 0 44.5 -3t40.5 -7v40q0 60 -28 80t-77 20h-100v50q23 8 56.5 14t63.5 6q68 0 113.5 -13.5t68.5 -50t23 -106.5v-340h-85l-15 30h-5q-16 -15 -42.5 -27.5t-67.5 -12.5zM235 60q19 0 33.5 6.5
t21.5 13.5v160h-55q-17 0 -34.5 -8t-29 -27.5t-11.5 -54.5t11.5 -54.5t29 -27.5t34.5 -8zM399 -159q-41 0 -65.5 23t-24.5 57q0 25 6.5 43t13 27.5l6.5 9.5h50v-45q0 -26 14 -40.5t40 -14.5h36v-45l-21 -7.5t-55 -7.5z" />
    <glyph glyph-name="Cacute" unicode="&#x106;" horiz-adv-x="455" 
d="M280 -10q-77 0 -129.5 31.5t-79 110t-26.5 218.5t26 218.5t76.5 110t122.5 31.5q53 0 95.5 -6t64.5 -14v-55h-120q-42 0 -75 -24.5t-51.5 -86t-18.5 -174.5q0 -112 19 -174t54 -86.5t82 -24.5h120v-55q-22 -7 -64.5 -13.5t-95.5 -6.5zM229 760l35 130h115l-75 -130h-75z
" />
    <glyph glyph-name="cacute" unicode="&#x107;" horiz-adv-x="395" 
d="M250 -10q-70 0 -116.5 25.5t-70 82.5t-23.5 152t23 152t67.5 82.5t109.5 25.5q38 0 73 -6t57 -14v-50h-110q-30 0 -52.5 -16t-35 -57.5t-12.5 -116.5t13 -116t37.5 -57.5t59.5 -16.5h110v-50q-22 -7 -57 -13.5t-73 -6.5zM192 560l35 130h115l-75 -130h-75z" />
    <glyph glyph-name="Ccaron" unicode="&#x10c;" horiz-adv-x="455" 
d="M280 -10q-77 0 -129.5 31.5t-79 110t-26.5 218.5t26 218.5t76.5 110t122.5 31.5q53 0 95.5 -6t64.5 -14v-55h-120q-42 0 -75 -24.5t-51.5 -86t-18.5 -174.5q0 -112 19 -174t54 -86.5t82 -24.5h120v-55q-22 -7 -64.5 -13.5t-95.5 -6.5zM209 760l-80 130h76l56 -70l56 70
h77l-80 -130h-105z" />
    <glyph glyph-name="ccaron" unicode="&#x10d;" horiz-adv-x="395" 
d="M250 -10q-70 0 -116.5 25.5t-70 82.5t-23.5 152t23 152t67.5 82.5t109.5 25.5q38 0 73 -6t57 -14v-50h-110q-30 0 -52.5 -16t-35 -57.5t-12.5 -116.5t13 -116t37.5 -57.5t59.5 -16.5h110v-50q-22 -7 -57 -13.5t-73 -6.5zM172 560l-80 130h76l56 -70l56 70h77l-80 -130
h-105z" />
    <glyph glyph-name="Dcroat" unicode="&#x110;" horiz-adv-x="560" 
d="M260 -10q-56 0 -96.5 4.5t-78.5 15.5v305h-75v80h75v295q38 11 78.5 15.5t96.5 4.5q83 0 139.5 -34t86 -112.5t29.5 -213.5t-29.5 -214t-86 -112.5t-139.5 -33.5zM205 65h55q41 0 71 24.5t47 86.5t17 174q0 113 -17 174.5t-47 86t-71 24.5h-55v-240h105v-80h-105v-250z
" />
    <glyph glyph-name="dcroat" unicode="&#x111;" horiz-adv-x="495" 
d="M210 -10q-50 0 -88.5 25.5t-60 82.5t-21.5 152t22 152t62.5 82.5t95.5 25.5q26 0 47.5 -7t37.5 -18v215h120v-700h-85l-15 30h-5q-16 -15 -42.5 -27.5t-67.5 -12.5zM250 60q19 0 31.5 6.5t23.5 13.5v340q-7 8 -21.5 14t-33.5 6q-25 0 -45.5 -16t-32.5 -57.5t-12 -116.5
t12 -116t32.5 -57.5t45.5 -16.5zM163 558v74h310v-54q-22 -7 -55.5 -13.5t-59.5 -6.5h-195z" />
    <glyph glyph-name="Emacron" unicode="&#x112;" 
d="M70 0v700h365v-80h-245v-215h215v-80h-215v-245h245v-80h-365zM127 785v70h240v-70h-240z" />
    <glyph glyph-name="emacron" unicode="&#x113;" horiz-adv-x="460" 
d="M265 -10q-77 0 -127 25.5t-74 82.5t-24 152t22.5 152t65 82.5t102.5 25.5t102.5 -25.5t65 -82.5t22.5 -152v-35h-260q0 -86 30.5 -120.5t94.5 -34.5h110v-50q-22 -7 -57 -13.5t-73 -6.5zM160 285h140q0 65 -9 99.5t-25 47.5t-36 13t-36 -13t-25 -47.5t-9 -99.5zM110 600
v70h240v-70h-240z" />
    <glyph glyph-name="Edotaccent" unicode="&#x116;" 
d="M70 0v700h365v-80h-245v-215h215v-80h-215v-245h245v-80h-365zM205 760v120h110v-120h-110z" />
    <glyph glyph-name="edotaccent" unicode="&#x117;" horiz-adv-x="460" 
d="M265 -10q-77 0 -127 25.5t-74 82.5t-24 152t22.5 152t65 82.5t102.5 25.5t102.5 -25.5t65 -82.5t22.5 -152v-35h-260q0 -86 30.5 -120.5t94.5 -34.5h110v-50q-22 -7 -57 -13.5t-73 -6.5zM160 285h140q0 65 -9 99.5t-25 47.5t-36 13t-36 -13t-25 -47.5t-9 -99.5zM175 560
v120h110v-120h-110z" />
    <glyph glyph-name="Eogonek" unicode="&#x118;" 
d="M70 0v700h365v-80h-245v-215h215v-80h-215v-245h245v-80h-365zM397 -159q-41 0 -65.5 23t-24.5 57q0 25 6.5 43t13 27.5l6.5 9.5h50v-45q0 -26 14 -40.5t40 -14.5h36v-45l-21 -7.5t-55 -7.5z" />
    <glyph glyph-name="eogonek" unicode="&#x119;" horiz-adv-x="460" 
d="M265 -10q-77 0 -127 25.5t-74 82.5t-24 152t22.5 152t65 82.5t102.5 25.5t102.5 -25.5t65 -82.5t22.5 -152v-35h-260q0 -86 30.5 -120.5t94.5 -34.5h110v-50q-22 -7 -57 -13.5t-73 -6.5zM160 285h140q0 65 -9 99.5t-25 47.5t-36 13t-36 -13t-25 -47.5t-9 -99.5zM284 -159
q-41 0 -65.5 23t-24.5 57q0 25 6.5 43t13 27.5l6.5 9.5h50v-45q0 -26 14 -40.5t40 -14.5h36v-45l-21 -7.5t-55 -7.5z" />
    <glyph glyph-name="Gbreve" unicode="&#x11e;" horiz-adv-x="525" 
d="M300 -10q-87 0 -143.5 31.5t-84 110t-27.5 218.5t26.5 218.5t79 110t129.5 31.5q53 0 95.5 -6t64.5 -14v-55h-130q-42 0 -75 -24.5t-51.5 -86t-18.5 -174.5q0 -112 19 -174t54 -86.5t82 -24.5h25v315h120v-370q-22 -7 -65.5 -13.5t-99.5 -6.5zM283 765q-49 0 -83 20.5
t-57 54.5l50 50q15 -15 37.5 -27.5t52.5 -12.5t52.5 12.5t37.5 27.5l50 -50q-22 -34 -56.5 -54.5t-83.5 -20.5z" />
    <glyph glyph-name="gbreve" unicode="&#x11f;" horiz-adv-x="490" 
d="M210 -210q-37 0 -72 6.5t-58 13.5v50h110q56 0 85.5 34.5t29.5 120.5q-15 -11 -37 -18t-48 -7q-55 0 -95.5 25.5t-62.5 82.5t-22 152t24 152t72.5 82.5t123.5 25.5q53 0 90.5 -7.5t74.5 -22.5v-440q0 -90 -23.5 -145t-71 -80t-120.5 -25zM250 60q19 0 33.5 6.5t21.5 13.5
v360h-45q-30 0 -52.5 -16t-35 -57.5t-12.5 -116.5t12 -116t32.5 -57.5t45.5 -16.5zM240 565q-49 0 -83 20.5t-57 54.5l50 50q15 -15 37.5 -27.5t52.5 -12.5t52.5 12.5t37.5 27.5l50 -50q-22 -34 -56.5 -54.5t-83.5 -20.5z" />
    <glyph glyph-name="uni0122" unicode="&#x122;" horiz-adv-x="525" 
d="M300 -10q-87 0 -143.5 31.5t-84 110t-27.5 218.5t26.5 218.5t79 110t129.5 31.5q53 0 95.5 -6t64.5 -14v-55h-130q-42 0 -75 -24.5t-51.5 -86t-18.5 -174.5q0 -112 19 -174t54 -86.5t82 -24.5h25v315h120v-370q-22 -7 -65.5 -13.5t-99.5 -6.5zM231 -210v150h110l-35 -150
h-75z" />
    <glyph glyph-name="uni0123" unicode="&#x123;" horiz-adv-x="490" 
d="M210 -210q-37 0 -72 6.5t-58 13.5v50h110q56 0 85.5 34.5t29.5 120.5q-15 -11 -37 -18t-48 -7q-55 0 -95.5 25.5t-62.5 82.5t-22 152t24 152t72.5 82.5t123.5 25.5q53 0 90.5 -7.5t74.5 -22.5v-440q0 -90 -23.5 -145t-71 -80t-120.5 -25zM250 60q19 0 33.5 6.5t21.5 13.5
v360h-45q-30 0 -52.5 -16t-35 -57.5t-12.5 -116.5t12 -116t32.5 -57.5t45.5 -16.5zM189 570l35 150h75v-150h-110z" />
    <glyph glyph-name="hbar" unicode="&#x127;" horiz-adv-x="515" 
d="M75 0v536h-55v74h55v90h120v-90h135v-54q-22 -7 -55.5 -13.5t-59.5 -6.5h-20v-86q19 15 44.5 22.5t55.5 7.5q43 0 78 -13t56 -47.5t21 -99.5v-320h-120v320q0 53 -25 71.5t-55 18.5q-19 0 -33 -6t-22 -14v-390h-120z" />
    <glyph glyph-name="Itilde" unicode="&#x128;" horiz-adv-x="260" 
d="M70 0v700h120v-700h-120zM180 760q-17 0 -29.5 7.5t-23 17.5t-19.5 17.5t-18 7.5q-25 0 -25 -40h-60q0 68 20.5 94t54.5 26q17 0 29.5 -7.5t23 -17.5t19.5 -17.5t18 -7.5q25 0 25 40h60q0 -67 -20.5 -93.5t-54.5 -26.5z" />
    <glyph glyph-name="itilde" unicode="&#x129;" horiz-adv-x="260" 
d="M70 0v500h120v-500h-120zM180 560q-17 0 -29.5 7.5t-23 17.5t-19.5 17.5t-18 7.5q-25 0 -25 -40h-60q0 68 20.5 94t54.5 26q17 0 29.5 -7.5t23 -17.5t19.5 -17.5t18 -7.5q25 0 25 40h60q0 -67 -20.5 -93.5t-54.5 -26.5z" />
    <glyph glyph-name="Imacron" unicode="&#x12a;" horiz-adv-x="260" 
d="M70 0v700h120v-700h-120zM10 785v70h240v-70h-240z" />
    <glyph glyph-name="imacron" unicode="&#x12b;" horiz-adv-x="260" 
d="M70 0v500h120v-500h-120zM10 600v70h240v-70h-240z" />
    <glyph glyph-name="Iogonek" unicode="&#x12e;" horiz-adv-x="260" 
d="M70 0v700h120v-700h-120zM156 -159q-41 0 -65.5 23t-24.5 57q0 25 6.5 43t13 27.5l6.5 9.5h50v-45q0 -26 14 -40.5t40 -14.5h36v-45l-21 -7.5t-55 -7.5z" />
    <glyph glyph-name="iogonek" unicode="&#x12f;" horiz-adv-x="260" 
d="M70 0v500h120v-500h-120zM70 560v120h120v-120h-120zM152 -159q-41 0 -65.5 23t-24.5 57q0 25 6.5 43t13 27.5l6.5 9.5h50v-45q0 -26 14 -40.5t40 -14.5h36v-45l-21 -7.5t-55 -7.5z" />
    <glyph glyph-name="Idotaccent" unicode="&#x130;" horiz-adv-x="260" 
d="M70 0v700h120v-700h-120zM75 760v120h110v-120h-110z" />
    <glyph glyph-name="dotlessi" unicode="&#x131;" horiz-adv-x="260" 
d="M70 0v500h120v-500h-120z" />
    <glyph glyph-name="ij" unicode="&#x133;" horiz-adv-x="490" 
d="M265 -210q-30 0 -55.5 6.5t-44.5 13.5v50h70q18 0 32.5 10.5t23.5 32.5t9 57v465h-110v-425h-120v500h350v-540q0 -70 -21 -106.5t-56 -50t-78 -13.5zM70 560v120h120v-120h-120zM300 560v120h120v-120h-120z" />
    <glyph glyph-name="Jcircumflex" unicode="&#x134;" horiz-adv-x="375" 
d="M100 -10q-30 0 -55.5 6.5t-44.5 13.5v55h100q28 0 49 15.5t33.5 54t12.5 105.5v460h120v-460q0 -90 -23.5 -145t-71 -80t-120.5 -25zM122 750l80 130h105l80 -130h-77l-56 70l-56 -70h-76z" />
    <glyph glyph-name="jcircumflex" unicode="&#x135;" horiz-adv-x="260" 
d="M40 -210q-30 0 -55.5 6.5t-44.5 13.5v50h70q18 0 32.5 10.5t23.5 32.5t9 57v540h120v-540q0 -70 -21 -106.5t-56 -50t-78 -13.5zM2 550l80 130h105l80 -130h-77l-56 70l-56 -70h-76z" />
    <glyph glyph-name="uni0136" unicode="&#x136;" horiz-adv-x="520" 
d="M70 0v700h120v-320l165 320h135l-185 -345l205 -355h-135l-185 330v-330h-120zM215 -210v150h110l-35 -150h-75z" />
    <glyph glyph-name="uni0137" unicode="&#x137;" horiz-adv-x="460" 
d="M70 0v700h120v-415l120 215h130l-135 -235l145 -265h-130l-130 245v-245h-120zM195 -210v150h110l-35 -150h-75z" />
    <glyph glyph-name="kgreenlandic" unicode="&#x138;" horiz-adv-x="460" 
d="M70 0v500h120v-215l120 215h130l-135 -235l145 -265h-130l-130 245v-245h-120z" />
    <glyph glyph-name="uni013B" unicode="&#x13b;" horiz-adv-x="445" 
d="M70 0v700h120v-620h245v-80h-365zM204 -210v150h110l-35 -150h-75z" />
    <glyph glyph-name="uni013C" unicode="&#x13c;" horiz-adv-x="260" 
d="M70 0v700h120v-700h-120zM75 -210v150h110l-35 -150h-75z" />
    <glyph glyph-name="ldot" unicode="&#x140;" horiz-adv-x="430" 
d="M70 0v700h120v-700h-120zM260 290v120h120v-120h-120z" />
    <glyph glyph-name="Lslash" unicode="&#x141;" horiz-adv-x="445" 
d="M70 0v270l-35 -25l-45 60l80 57v338h120v-252l45 32l45 -60l-90 -65v-275h245v-80h-365z" />
    <glyph glyph-name="lslash" unicode="&#x142;" horiz-adv-x="290" 
d="M80 0v270l-35 -25l-45 60l80 57v338h120v-252l45 32l45 -60l-90 -65v-355h-120z" />
    <glyph glyph-name="Nacute" unicode="&#x143;" horiz-adv-x="570" 
d="M70 0v700h120l190 -460h5v460h115v-700h-120l-190 460h-5v-460h-115zM250 760l35 130h115l-75 -130h-75z" />
    <glyph glyph-name="nacute" unicode="&#x144;" horiz-adv-x="505" 
d="M65 0v500h85l15 -30h5q16 15 43 27.5t72 12.5q43 0 78 -13t56 -47.5t21 -99.5v-350h-120v350q0 53 -25 71.5t-55 18.5q-19 0 -33 -6t-22 -14v-420h-120zM209 560l35 130h115l-75 -130h-75z" />
    <glyph glyph-name="uni0145" unicode="&#x145;" horiz-adv-x="570" 
d="M70 0v700h120l190 -460h5v460h115v-700h-120l-190 460h-5v-460h-115zM225 -210v150h110l-35 -150h-75z" />
    <glyph glyph-name="uni0146" unicode="&#x146;" horiz-adv-x="505" 
d="M65 0v500h85l15 -30h5q16 15 43 27.5t72 12.5q43 0 78 -13t56 -47.5t21 -99.5v-350h-120v350q0 53 -25 71.5t-55 18.5q-19 0 -33 -6t-22 -14v-420h-120zM202 -210v150h110l-35 -150h-75z" />
    <glyph glyph-name="Omacron" unicode="&#x14c;" horiz-adv-x="550" 
d="M275 -10q-70 0 -121.5 33.5t-80 112.5t-28.5 214t28.5 213.5t80 112.5t121.5 34t121.5 -34t80 -112.5t28.5 -213.5t-28.5 -214t-80 -112.5t-121.5 -33.5zM275 60q21 0 40.5 13.5t35 45.5t25 88.5t9.5 142.5t-9.5 142.5t-25 88.5t-35 45.5t-40.5 13.5t-40.5 -13.5
t-35 -45.5t-25 -88.5t-9.5 -142.5t9.5 -142.5t25 -88.5t35 -45.5t40.5 -13.5zM155 785v70h240v-70h-240z" />
    <glyph glyph-name="omacron" unicode="&#x14d;" horiz-adv-x="480" 
d="M240 -10q-65 0 -109.5 25.5t-67.5 82.5t-23 152t23 152t67.5 82.5t109.5 25.5t109.5 -25.5t67.5 -82.5t23 -152t-23 -152t-67.5 -82.5t-109.5 -25.5zM240 55q23 0 41 16.5t28.5 59t10.5 119.5q0 78 -10.5 120t-28.5 58.5t-41 16.5q-22 0 -40.5 -16.5t-29 -58.5
t-10.5 -120q0 -77 10.5 -119.5t29 -59t40.5 -16.5zM120 600v70h240v-70h-240z" />
    <glyph glyph-name="OE" unicode="&#x152;" horiz-adv-x="765" 
d="M345 0q-146 0 -225.5 85t-79.5 265t79.5 265t225.5 85h380v-80h-245v-215h215v-80h-215v-245h245v-80h-380zM345 80h15v540h-15q-57 0 -98.5 -26t-64 -85t-22.5 -159t22.5 -159t64 -85t98.5 -26z" />
    <glyph glyph-name="oe" unicode="&#x153;" horiz-adv-x="740" 
d="M240 -10q-65 0 -109.5 25.5t-67.5 82.5t-23 152t23 152t67.5 82.5t109.5 25.5q49 0 81 -17t54 -43q23 26 56.5 43t78.5 17q60 0 102.5 -25.5t65 -82.5t22.5 -152v-35h-260q0 -86 30.5 -120.5t94.5 -34.5h110v-50q-22 -7 -57 -13.5t-73 -6.5q-71 0 -109 17t-61 43
q-22 -26 -54 -43t-81 -17zM240 55q23 0 41 16.5t28.5 59t10.5 119.5q0 78 -10.5 120t-28.5 58.5t-41 16.5q-22 0 -40.5 -16.5t-29 -58.5t-10.5 -120q0 -77 10.5 -119.5t29 -59t40.5 -16.5zM440 285h140q0 65 -9 99.5t-25 47.5t-36 13t-36 -13t-25 -47.5t-9 -99.5z" />
    <glyph glyph-name="Racute" unicode="&#x154;" horiz-adv-x="535" 
d="M70 0v690q38 11 78.5 15.5t96.5 4.5q83 0 134.5 -24.5t76 -77.5t24.5 -138q0 -67 -14 -110.5t-38.5 -69t-57.5 -40.5l135 -250h-135l-115 225h-65v-225h-120zM190 305h55q56 0 85.5 35.5t29.5 129.5q0 63 -13 99t-38.5 51t-63.5 15h-55v-330zM208 760l35 130h115
l-75 -130h-75z" />
    <glyph glyph-name="uni0156" unicode="&#x156;" horiz-adv-x="535" 
d="M70 0v690q38 11 78.5 15.5t96.5 4.5q83 0 134.5 -24.5t76 -77.5t24.5 -138q0 -67 -14 -110.5t-38.5 -69t-57.5 -40.5l135 -250h-135l-115 225h-65v-225h-120zM190 305h55q56 0 85.5 35.5t29.5 129.5q0 63 -13 99t-38.5 51t-63.5 15h-55v-330zM225 -210v150h110l-35 -150
h-75z" />
    <glyph glyph-name="uni0157" unicode="&#x157;" horiz-adv-x="360" 
d="M65 0v500h85l15 -40h5q16 15 43 27.5t72 12.5h65v-85h-110q-19 0 -33 -6t-22 -14v-395h-120zM70 -210v150h110l-35 -150h-75z" />
    <glyph glyph-name="Rcaron" unicode="&#x158;" horiz-adv-x="535" 
d="M70 0v690q38 11 78.5 15.5t96.5 4.5q83 0 134.5 -24.5t76 -77.5t24.5 -138q0 -67 -14 -110.5t-38.5 -69t-57.5 -40.5l135 -250h-135l-115 225h-65v-225h-120zM190 305h55q56 0 85.5 35.5t29.5 129.5q0 63 -13 99t-38.5 51t-63.5 15h-55v-330zM188 760l-80 130h76l56 -70
l56 70h77l-80 -130h-105z" />
    <glyph glyph-name="rcaron" unicode="&#x159;" horiz-adv-x="360" 
d="M65 0v500h85l15 -40h5q16 15 43 27.5t72 12.5h65v-85h-110q-19 0 -33 -6t-22 -14v-395h-120zM155 560l-80 130h76l56 -70l56 70h77l-80 -130h-105z" />
    <glyph glyph-name="Sacute" unicode="&#x15a;" horiz-adv-x="465" 
d="M195 -10q-52 0 -94.5 6.5t-65.5 13.5v55h140q75 0 107.5 29.5t32.5 85.5q0 41 -20.5 66t-53 42t-69 33.5t-69 41t-53 64t-20.5 103.5q0 83 52 131.5t153 48.5q53 0 95.5 -6t64.5 -14v-55h-140q-49 0 -77 -28t-28 -77q0 -44 20.5 -70.5t53 -44t69 -34t69 -40.5t53 -62
t20.5 -99q0 -90 -56 -140t-184 -50zM192 760l35 130h115l-75 -130h-75z" />
    <glyph glyph-name="sacute" unicode="&#x15b;" horiz-adv-x="415" 
d="M170 -10q-37 0 -72 6.5t-58 13.5v50h110q56 0 85.5 16.5t29.5 53.5q0 26 -17 42.5t-43.5 28.5t-57 24.5t-57 30t-43.5 45t-17 69.5q0 83 50.5 111.5t144.5 28.5q38 0 73 -6t57 -14v-50h-110q-41 0 -68 -15t-27 -45q0 -26 17 -42.5t43.5 -28.5t57 -24.5t57 -30t43.5 -44.5
t17 -70q0 -60 -23.5 -92.5t-71 -45t-120.5 -12.5zM166 560l35 130h115l-75 -130h-75z" />
    <glyph glyph-name="Scedilla" unicode="&#x15e;" horiz-adv-x="465" 
d="M195 -10q-52 0 -94.5 6.5t-65.5 13.5v55h140q75 0 107.5 29.5t32.5 85.5q0 41 -20.5 66t-53 42t-69 33.5t-69 41t-53 64t-20.5 103.5q0 83 52 131.5t153 48.5q53 0 95.5 -6t64.5 -14v-55h-140q-49 0 -77 -28t-28 -77q0 -44 20.5 -70.5t53 -44t69 -34t69 -40.5t53 -62
t20.5 -99q0 -90 -56 -140t-184 -50zM245 -170q-37 0 -56 7.5l-19 7.5v34h65q23 0 29 6.5t6 14.5t-5.5 14.5t-24.5 6.5h-55v94h55v-45h15q45 0 67.5 -20t22.5 -50t-25.5 -50t-74.5 -20z" />
    <glyph glyph-name="scedilla" unicode="&#x15f;" horiz-adv-x="415" 
d="M170 -10q-37 0 -72 6.5t-58 13.5v50h110q56 0 85.5 16.5t29.5 53.5q0 26 -17 42.5t-43.5 28.5t-57 24.5t-57 30t-43.5 45t-17 69.5q0 83 50.5 111.5t144.5 28.5q38 0 73 -6t57 -14v-50h-110q-41 0 -68 -15t-27 -45q0 -26 17 -42.5t43.5 -28.5t57 -24.5t57 -30t43.5 -44.5
t17 -70q0 -60 -23.5 -92.5t-71 -45t-120.5 -12.5zM225 -170q-37 0 -56 7.5l-19 7.5v34h65q23 0 29 6.5t6 14.5t-5.5 14.5t-24.5 6.5h-55v94h55v-45h15q45 0 67.5 -20t22.5 -50t-25.5 -50t-74.5 -20z" />
    <glyph glyph-name="Scaron" unicode="&#x160;" horiz-adv-x="465" 
d="M195 -10q-52 0 -94.5 6.5t-65.5 13.5v55h140q75 0 107.5 29.5t32.5 85.5q0 41 -20.5 66t-53 42t-69 33.5t-69 41t-53 64t-20.5 103.5q0 83 52 131.5t153 48.5q53 0 95.5 -6t64.5 -14v-55h-140q-49 0 -77 -28t-28 -77q0 -44 20.5 -70.5t53 -44t69 -34t69 -40.5t53 -62
t20.5 -99q0 -90 -56 -140t-184 -50zM172 760l-80 130h76l56 -70l56 70h77l-80 -130h-105z" />
    <glyph glyph-name="scaron" unicode="&#x161;" horiz-adv-x="415" 
d="M170 -10q-37 0 -72 6.5t-58 13.5v50h110q56 0 85.5 16.5t29.5 53.5q0 26 -17 42.5t-43.5 28.5t-57 24.5t-57 30t-43.5 45t-17 69.5q0 83 50.5 111.5t144.5 28.5q38 0 73 -6t57 -14v-50h-110q-41 0 -68 -15t-27 -45q0 -26 17 -42.5t43.5 -28.5t57 -24.5t57 -30t43.5 -44.5
t17 -70q0 -60 -23.5 -92.5t-71 -45t-120.5 -12.5zM146 560l-80 130h76l56 -70l56 70h77l-80 -130h-105z" />
    <glyph glyph-name="Utilde" unicode="&#x168;" horiz-adv-x="550" 
d="M275 -10q-72 0 -120 25t-71.5 80t-23.5 145v460h120v-460q0 -70 12.5 -109t34 -55t48.5 -16q28 0 49 16t33.5 55t12.5 109v460h120v-460q0 -90 -23.5 -145t-71 -80t-120.5 -25zM325 760q-17 0 -29.5 7.5t-23 17.5t-19.5 17.5t-18 7.5q-25 0 -25 -40h-60q0 68 20.5 94
t54.5 26q17 0 29.5 -7.5t23 -17.5t19.5 -17.5t18 -7.5q25 0 25 40h60q0 -67 -20.5 -93.5t-54.5 -26.5z" />
    <glyph glyph-name="utilde" unicode="&#x169;" horiz-adv-x="505" 
d="M220 -10q-42 0 -77.5 13t-56.5 47.5t-21 99.5v350h120v-350q0 -52 25 -71t55 -19q19 0 33.5 6.5t21.5 13.5v420h120v-500h-85l-15 30h-5q-16 -15 -43 -27.5t-72 -12.5zM303 560q-17 0 -29.5 7.5t-23 17.5t-19.5 17.5t-18 7.5q-25 0 -25 -40h-60q0 68 20.5 94t54.5 26
q17 0 29.5 -7.5t23 -17.5t19.5 -17.5t18 -7.5q25 0 25 40h60q0 -67 -20.5 -93.5t-54.5 -26.5z" />
    <glyph glyph-name="Umacron" unicode="&#x16a;" horiz-adv-x="550" 
d="M275 -10q-72 0 -120 25t-71.5 80t-23.5 145v460h120v-460q0 -70 12.5 -109t34 -55t48.5 -16q28 0 49 16t33.5 55t12.5 109v460h120v-460q0 -90 -23.5 -145t-71 -80t-120.5 -25zM155 785v70h240v-70h-240z" />
    <glyph glyph-name="umacron" unicode="&#x16b;" horiz-adv-x="505" 
d="M220 -10q-42 0 -77.5 13t-56.5 47.5t-21 99.5v350h120v-350q0 -52 25 -71t55 -19q19 0 33.5 6.5t21.5 13.5v420h120v-500h-85l-15 30h-5q-16 -15 -43 -27.5t-72 -12.5zM133 600v70h240v-70h-240z" />
    <glyph glyph-name="Uogonek" unicode="&#x172;" horiz-adv-x="550" 
d="M275 -10q-72 0 -120 25t-71.5 80t-23.5 145v460h120v-460q0 -70 12.5 -109t34 -55t48.5 -16q28 0 49 16t33.5 55t12.5 109v460h120v-460q0 -90 -23.5 -145t-71 -80t-120.5 -25zM315 -159q-41 0 -65.5 23t-24.5 57q0 25 6.5 43t13 27.5l6.5 9.5h50v-45q0 -26 14 -40.5
t40 -14.5h36v-45l-21 -7.5t-55 -7.5z" />
    <glyph glyph-name="uogonek" unicode="&#x173;" horiz-adv-x="505" 
d="M220 -10q-42 0 -77.5 13t-56.5 47.5t-21 99.5v350h120v-350q0 -52 25 -71t55 -19q19 0 33.5 6.5t21.5 13.5v420h120v-500h-85l-15 30h-5q-16 -15 -43 -27.5t-72 -12.5zM430 -159q-41 0 -65.5 23t-24.5 57q0 25 6.5 43t13 27.5l6.5 9.5h50v-45q0 -26 14 -40.5t40 -14.5h36
v-45l-21 -7.5t-55 -7.5z" />
    <glyph glyph-name="Ydieresis" unicode="&#x178;" horiz-adv-x="480" 
d="M180 0v210l-175 490h125l110 -341l110 341h125l-175 -490v-210h-120zM265 770v120h110v-120h-110zM105 770v120h110v-120h-110z" />
    <glyph glyph-name="Zacute" unicode="&#x179;" horiz-adv-x="435" 
d="M20 0v75l260 545h-255v80h390v-75l-260 -545h255v-80h-390zM179 760l35 130h115l-75 -130h-75z" />
    <glyph glyph-name="zacute" unicode="&#x17a;" horiz-adv-x="400" 
d="M20 0v70l220 355h-210v75h350v-70l-220 -355h215v-75h-355zM155 560l35 130h115l-75 -130h-75z" />
    <glyph glyph-name="Zdotaccent" unicode="&#x17b;" horiz-adv-x="435" 
d="M20 0v75l260 545h-255v80h390v-75l-260 -545h255v-80h-390zM165 760v120h110v-120h-110z" />
    <glyph glyph-name="zdotaccent" unicode="&#x17c;" horiz-adv-x="400" 
d="M20 0v70l220 355h-210v75h350v-70l-220 -355h215v-75h-355zM155 560v120h110v-120h-110z" />
    <glyph glyph-name="Zcaron" unicode="&#x17d;" horiz-adv-x="435" 
d="M20 0v75l260 545h-255v80h390v-75l-260 -545h255v-80h-390zM159 760l-80 130h76l56 -70l56 70h77l-80 -130h-105z" />
    <glyph glyph-name="zcaron" unicode="&#x17e;" horiz-adv-x="400" 
d="M20 0v70l220 355h-210v75h350v-70l-220 -355h215v-75h-355zM135 560l-80 130h76l56 -70l56 70h77l-80 -130h-105z" />
    <glyph glyph-name="florin" unicode="&#x192;" horiz-adv-x="340" 
d="M40 -210q-20 0 -40.5 3t-38.5 7.5t-31 9.5v50h70q20 0 37 8.5t27.5 30t10.5 61.5v455h-55v75h55v40q0 70 21 106.5t56.5 50t77.5 13.5q20 0 43 -3t44 -7.5t33 -9.5v-50h-80q-20 0 -37 -8.5t-27.5 -30t-10.5 -61.5v-40h135v-55q-22 -7 -57 -13.5t-73 -6.5h-5v-455
q0 -70 -21 -106.5t-56 -50t-78 -13.5z" />
    <glyph glyph-name="Ohorn" unicode="&#x1a0;" horiz-adv-x="550" 
d="M275 -10q-70 0 -121.5 33.5t-80 112.5t-28.5 214t28.5 213.5t80 112.5t121.5 34t121.5 -34t80 -112.5t28.5 -213.5t-28.5 -214t-80 -112.5t-121.5 -33.5zM275 60q21 0 40.5 13.5t35 45.5t25 88.5t9.5 142.5t-9.5 142.5t-25 88.5t-35 45.5t-40.5 13.5t-40.5 -13.5
t-35 -45.5t-25 -88.5t-9.5 -142.5t9.5 -142.5t25 -88.5t35 -45.5t40.5 -13.5zM338 635v65q35 0 57 15.5t22 58.5h100q0 -49 -28.5 -80t-69.5 -45t-81 -14z" />
    <glyph glyph-name="ohorn" unicode="&#x1a1;" horiz-adv-x="480" 
d="M240 -10q-65 0 -109.5 25.5t-67.5 82.5t-23 152t23 152t67.5 82.5t109.5 25.5t109.5 -25.5t67.5 -82.5t23 -152t-23 -152t-67.5 -82.5t-109.5 -25.5zM240 55q23 0 41 16.5t28.5 59t10.5 119.5q0 78 -10.5 120t-28.5 58.5t-41 16.5q-22 0 -40.5 -16.5t-29 -58.5
t-10.5 -120q0 -77 10.5 -119.5t29 -59t40.5 -16.5zM297 435v65q35 0 57 15.5t22 58.5h100q0 -49 -28.5 -80t-69.5 -45t-81 -14z" />
    <glyph glyph-name="Uhorn" unicode="&#x1af;" horiz-adv-x="550" 
d="M275 -10q-72 0 -120 25t-71.5 80t-23.5 145v460h120v-460q0 -70 12.5 -109t34 -55t48.5 -16q28 0 49 16t33.5 55t12.5 109v460h120v-460q0 -90 -23.5 -145t-71 -80t-120.5 -25zM425 635v65q35 0 57 15.5t22 58.5h100q0 -49 -28.5 -80t-69.5 -45t-81 -14z" />
    <glyph glyph-name="uhorn" unicode="&#x1b0;" horiz-adv-x="505" 
d="M220 -10q-42 0 -77.5 13t-56.5 47.5t-21 99.5v350h120v-350q0 -52 25 -71t55 -19q19 0 33.5 6.5t21.5 13.5v420h120v-500h-85l-15 30h-5q-16 -15 -43 -27.5t-72 -12.5zM374 435v65q35 0 57 15.5t22 58.5h100q0 -49 -28.5 -80t-69.5 -45t-81 -14z" />
    <glyph glyph-name="uni0237" unicode="&#x237;" horiz-adv-x="260" 
d="M40 -210q-30 0 -55.5 6.5t-44.5 13.5v50h70q18 0 32.5 10.5t23.5 32.5t9 57v540h120v-540q0 -70 -21 -106.5t-56 -50t-78 -13.5z" />
    <glyph glyph-name="uni02BC" unicode="&#x2bc;" horiz-adv-x="170" 
d="M0 420v230h120l-40 -230h-80z" />
    <glyph glyph-name="circumflex" unicode="&#x2c6;" horiz-adv-x="305" 
d="M20 550l80 130h105l80 -130h-77l-56 70l-56 -70h-76z" />
    <glyph glyph-name="caron" unicode="&#x2c7;" horiz-adv-x="305" 
d="M100 560l-80 130h76l56 -70l56 70h77l-80 -130h-105z" />
    <glyph glyph-name="dotaccent" unicode="&#x2d9;" horiz-adv-x="150" 
d="M20 560v120h110v-120h-110z" />
    <glyph glyph-name="ring" unicode="&#x2da;" horiz-adv-x="290" 
d="M145 535q-41 0 -68 24t-27 61q0 38 27 61.5t68 23.5t68 -23.5t27 -61.5q0 -37 -27 -61t-68 -24zM145 590q11 0 20.5 7.5t9.5 22.5t-9.5 22.5t-20.5 7.5t-20.5 -7.5t-9.5 -22.5t9.5 -22.5t20.5 -7.5z" />
    <glyph glyph-name="ogonek" unicode="&#x2db;" horiz-adv-x="206" 
d="M110 -160q-41 0 -65.5 23t-24.5 57q0 25 6.5 43t13 27.5l6.5 9.5h50v-45q0 -26 14 -40.5t40 -14.5h36v-45l-21 -7.5t-55 -7.5z" />
    <glyph glyph-name="tilde" unicode="&#x2dc;" horiz-adv-x="290" 
d="M195 560q-17 0 -29.5 7.5t-23 17.5t-19.5 17.5t-18 7.5q-25 0 -25 -40h-60q0 68 20.5 94t54.5 26q17 0 29.5 -7.5t23 -17.5t19.5 -17.5t18 -7.5q25 0 25 40h60q0 -67 -20.5 -93.5t-54.5 -26.5z" />
    <glyph glyph-name="gravecomb" unicode="&#x300;" horiz-adv-x="0" 
d="M99 560l-75 130h115l35 -130h-75z" />
    <glyph glyph-name="acutecomb" unicode="&#x301;" horiz-adv-x="0" 
d="M20 560l35 130h115l-75 -130h-75z" />
    <glyph glyph-name="uni0302" unicode="&#x302;" horiz-adv-x="0" 
d="M20 550l80 130h105l80 -130h-77l-56 70l-56 -70h-76z" />
    <glyph glyph-name="tildecomb" unicode="&#x303;" horiz-adv-x="0" 
d="M195 560q-17 0 -29.5 7.5t-23 17.5t-19.5 17.5t-18 7.5q-25 0 -25 -40h-60q0 68 20.5 94t54.5 26q17 0 29.5 -7.5t23 -17.5t19.5 -17.5t18 -7.5q25 0 25 40h60q0 -67 -20.5 -93.5t-54.5 -26.5z" />
    <glyph glyph-name="uni0304" unicode="&#x304;" horiz-adv-x="0" 
d="M20 600v70h240v-70h-240z" />
    <glyph glyph-name="uni0306" unicode="&#x306;" horiz-adv-x="0" 
d="M240 565q-49 0 -83 20.5t-57 54.5l50 50q15 -15 37.5 -27.5t52.5 -12.5t52.5 12.5t37.5 27.5l50 -50q-22 -34 -56.5 -54.5t-83.5 -20.5z" />
    <glyph glyph-name="uni0307" unicode="&#x307;" horiz-adv-x="0" 
d="M20 560v120h110v-120h-110z" />
    <glyph glyph-name="uni0308" unicode="&#x308;" horiz-adv-x="0" 
d="M180 570v120h110v-120h-110zM20 570v120h110v-120h-110z" />
    <glyph glyph-name="hookabovecomb" unicode="&#x309;" horiz-adv-x="0" 
d="M148 543q0 21 11 35t22 25.5t11 24.5q0 37 -42 37h-50v63q8 3 24 5.5t33 2.5q36 0 62 -6.5t40.5 -28.5t14.5 -69q0 -18 -14.5 -32.5t-29.5 -27.5t-15 -29h-67z" />
    <glyph glyph-name="uni030A" unicode="&#x30a;" horiz-adv-x="0" 
d="M145 535q-41 0 -68 24t-27 61q0 38 27 61.5t68 23.5t68 -23.5t27 -61.5q0 -37 -27 -61t-68 -24zM145 590q11 0 20.5 7.5t9.5 22.5t-9.5 22.5t-20.5 7.5t-20.5 -7.5t-9.5 -22.5t9.5 -22.5t20.5 -7.5z" />
    <glyph glyph-name="uni030B" unicode="&#x30b;" horiz-adv-x="0" 
d="M160 560l45 130h105l-85 -130h-65zM30 560l45 130h105l-85 -130h-65z" />
    <glyph glyph-name="uni030C" unicode="&#x30c;" horiz-adv-x="0" 
d="M100 560l-80 130h76l56 -70l56 70h77l-80 -130h-105z" />
    <glyph glyph-name="uni0312" unicode="&#x312;" horiz-adv-x="0" 
d="M40 570l35 150h75v-150h-110z" />
    <glyph glyph-name="uni031B" unicode="&#x31b;" horiz-adv-x="0" 
d="M100 435v65q35 0 57 15.5t22 58.5h100q0 -49 -28.5 -80t-69.5 -45t-81 -14z" />
    <glyph glyph-name="dotbelowcomb" unicode="&#x323;" horiz-adv-x="0" 
d="M50 -151v99h99v-99h-99z" />
    <glyph glyph-name="uni0326" unicode="&#x326;" horiz-adv-x="0" 
d="M45 -210v150h110l-35 -150h-75z" />
    <glyph glyph-name="uni0327" unicode="&#x327;" horiz-adv-x="0" 
d="M95 -170q-37 0 -56 7.5l-19 7.5v34h65q23 0 29 6.5t6 14.5t-5.5 14.5t-24.5 6.5h-55v94h55v-45h15q45 0 67.5 -20t22.5 -50t-25.5 -50t-74.5 -20z" />
    <glyph glyph-name="uni0328" unicode="&#x328;" horiz-adv-x="0" 
d="M110 -160q-41 0 -65.5 23t-24.5 57q0 25 6.5 43t13 27.5l6.5 9.5h50v-45q0 -26 14 -40.5t40 -14.5h36v-45l-21 -7.5t-55 -7.5z" />
    <glyph glyph-name="uni0335" unicode="&#x335;" horiz-adv-x="0" 
d="M20 536v74h310v-54q-22 -7 -55.5 -13.5t-59.5 -6.5h-195z" />
    <glyph glyph-name="uni0400" unicode="&#x400;" 
d="M70 0v700h365v-80h-245v-215h215v-80h-215v-245h245v-80h-365zM223 760l-75 130h115l35 -130h-75z" />
    <glyph glyph-name="uni0401" unicode="&#x401;" 
d="M70 0v700h365v-80h-245v-215h215v-80h-215v-245h245v-80h-365zM115 760v120h110v-120h-110zM275 760v120h110v-120h-110z" />
    <glyph glyph-name="uni0402" unicode="&#x402;" horiz-adv-x="575" 
d="M380 -10q-22 0 -43.5 4.5t-36.5 15.5v50h50q26 0 45.5 24t19.5 76v85q0 56 -30 85.5t-90 29.5h-55v-360h-120v620h-120v80h380v-80h-140v-190q19 4 47.5 7t47.5 3q98 0 149 -50.5t51 -144.5v-85q0 -82 -42 -126t-113 -44z" />
    <glyph glyph-name="uni0403" unicode="&#x403;" horiz-adv-x="435" 
d="M70 0v700h345v-80h-225v-620h-120zM195 750l35 130h115l-75 -130h-75z" />
    <glyph glyph-name="uni0404" unicode="&#x404;" horiz-adv-x="455" 
d="M280 -10q-77 0 -129.5 31.5t-79 110t-26.5 218.5t26 218.5t76.5 110t122.5 31.5q53 0 95.5 -6t64.5 -14v-55h-120q-40 0 -71 -20t-49.5 -71t-23.5 -144h204v-80h-204q2 -100 21.5 -155.5t53.5 -77.5t79 -22h120v-55q-22 -7 -64.5 -13.5t-95.5 -6.5z" />
    <glyph glyph-name="uni0405" unicode="&#x405;" horiz-adv-x="465" 
d="M195 -10q-52 0 -94.5 6.5t-65.5 13.5v55h140q75 0 107.5 29.5t32.5 85.5q0 41 -20.5 66t-53 42t-69 33.5t-69 41t-53 64t-20.5 103.5q0 83 52 131.5t153 48.5q53 0 95.5 -6t64.5 -14v-55h-140q-49 0 -77 -28t-28 -77q0 -44 20.5 -70.5t53 -44t69 -34t69 -40.5t53 -62
t20.5 -99q0 -90 -56 -140t-184 -50z" />
    <glyph glyph-name="uni0406" unicode="&#x406;" horiz-adv-x="260" 
d="M70 0v700h120v-700h-120z" />
    <glyph glyph-name="uni0407" unicode="&#x407;" horiz-adv-x="250" 
d="M65 0v700h120v-700h-120zM-10 760v120h110v-120h-110zM150 760v120h110v-120h-110z" />
    <glyph glyph-name="uni0408" unicode="&#x408;" horiz-adv-x="375" 
d="M100 -10q-30 0 -55.5 6.5t-44.5 13.5v55h100q28 0 49 15.5t33.5 54t12.5 105.5v460h120v-460q0 -90 -23.5 -145t-71 -80t-120.5 -25z" />
    <glyph glyph-name="uni0409" unicode="&#x409;" horiz-adv-x="810" 
d="M70 -10q-34 0 -52 5l-18 5v55q38 0 64.5 34.5t30.5 120.5l25 490h365v-280q19 4 46.5 7t38.5 3q101 0 153 -54.5t52 -170.5q0 -109 -55.5 -162t-179.5 -53q-56 0 -96.5 4.5t-78.5 15.5v610h-129l-21 -410q-4 -80 -23 -128.5t-50.5 -70t-71.5 -21.5zM485 65h55
q56 0 85.5 32.5t29.5 107.5q0 83 -29.5 114t-85.5 31h-55v-285z" />
    <glyph glyph-name="uni040A" unicode="&#x40a;" horiz-adv-x="815" 
d="M545 -10q-56 0 -96.5 4.5t-78.5 15.5v320h-180v-330h-120v700h120v-290h180v290h120v-300q19 4 46.5 7t38.5 3q101 0 153 -53t52 -162q0 -101 -55.5 -153t-179.5 -52zM490 65h55q56 0 85.5 31.5t29.5 98.5q0 75 -29.5 105t-85.5 30h-55v-265z" />
    <glyph glyph-name="uni040B" unicode="&#x40b;" horiz-adv-x="580" 
d="M120 0v620h-120v80h380v-80h-140v-185q19 4 47.5 7t47.5 3q105 0 152.5 -47.5t47.5 -152.5v-245h-120v245q0 60 -30 90t-90 30h-55v-365h-120z" />
    <glyph glyph-name="uni040C" unicode="&#x40c;" horiz-adv-x="520" 
d="M445 -10q-56 0 -86 30t-44 90l-30 130q-11 49 -30 67t-45 18h-20v-325h-120v700h120v-295h20q19 0 35 18t30 67l30 100q18 60 46 90t84 30q34 0 52 -5l18 -5v-55q-34 0 -50.5 -14.5t-24.5 -40.5l-30 -100q-18 -60 -39 -86.5t-51 -36.5v-4q30 -10 58.5 -36.5t41.5 -86.5
l30 -130q5 -22 23 -38.5t52 -16.5v-55l-18 -5t-52 -5zM229 740l35 130h115l-75 -130h-75z" />
    <glyph glyph-name="uni040D" unicode="&#x40d;" horiz-adv-x="570" 
d="M70 0v700h115v-460h5l185 460h125v-700h-115v470h-5l-190 -470h-120zM240 760l-75 130h115l35 -130h-75z" />
    <glyph glyph-name="uni040E" unicode="&#x40e;" horiz-adv-x="495" 
d="M190 -10q-30 0 -58.5 6.5t-51.5 13.5v55h70q25 0 44 11t34 40t27 84q-59 0 -97.5 34t-52.5 86l-105 380h120l102 -370q6 -22 19 -36t29 -14l85 420h120l-110 -540q-17 -86 -60.5 -128t-114.5 -42zM245 745q-49 0 -85.5 21.5t-59.5 58.5l50 50q15 -15 40 -30t55 -15t55 15
t40 30l50 -50q-22 -37 -59 -58.5t-86 -21.5z" />
    <glyph glyph-name="uni040F" unicode="&#x40f;" horiz-adv-x="560" 
d="M240 -150l-20 150h-150v700h120v-620h180v620h120v-700h-150l-20 -150h-80z" />
    <glyph glyph-name="uni0410" unicode="&#x410;" horiz-adv-x="540" 
d="M15 0l180 700h150l180 -700h-125l-44 175h-172l-44 -175h-125zM200 255h139l-67 285h-4z" />
    <glyph glyph-name="uni0411" unicode="&#x411;" horiz-adv-x="515" 
d="M245 -10q-56 0 -96.5 4.5t-78.5 15.5v690h375v-80h-255v-190h55q83 0 134.5 -24t76 -73.5t24.5 -127.5q0 -109 -55.5 -162t-179.5 -53zM190 65h55q56 0 85.5 32.5t29.5 107.5q0 79 -29.5 112t-85.5 33h-55v-285z" />
    <glyph glyph-name="uni0412" unicode="&#x412;" horiz-adv-x="530" 
d="M245 -10q-56 0 -96.5 4.5t-78.5 15.5v680q38 11 78.5 15.5t96.5 4.5q113 0 166.5 -49.5t53.5 -135.5q0 -45 -25 -86t-70 -62v-4q60 -21 92.5 -68t32.5 -115q0 -97 -57.5 -148.5t-192.5 -51.5zM190 65h55q64 0 94.5 31.5t30.5 98.5q0 71 -30.5 103t-94.5 32h-55v-265z
M190 405h45q49 0 77 29.5t28 85.5t-28 85.5t-77 29.5h-45v-230z" />
    <glyph glyph-name="uni0413" unicode="&#x413;" horiz-adv-x="435" 
d="M70 0v700h345v-80h-225v-620h-120z" />
    <glyph glyph-name="uni0414" unicode="&#x414;" horiz-adv-x="580" 
d="M10 -150v230h50l11.5 20.5t23.5 64t15 110.5l20 425h360v-620h65v-230h-75q-15 30 -25.5 67.5t-14.5 82.5h-315q-4 -45 -14.5 -82.5t-25.5 -67.5h-75zM180 80h190v550h-123l-17 -355q-3 -67 -15.5 -110.5t-23.5 -64z" />
    <glyph glyph-name="uni0415" unicode="&#x415;" 
d="M70 0v700h365v-80h-245v-215h215v-80h-215v-245h245v-80h-365z" />
    <glyph glyph-name="uni0416" unicode="&#x416;" horiz-adv-x="770" 
d="M75 -10q-34 0 -52 5l-18 5v55q34 0 52 16.5t23 38.5l30 130q14 60 42 86.5t58 36.5v4q-30 10 -51 36.5t-39 86.5l-30 100q-7 26 -24 40.5t-51 14.5v55l18 5t52 5q56 0 84 -30t46 -90l30 -100q14 -49 30 -67t35 -18h15v295h120v-295h15q19 0 35 18t30 67l30 100
q18 60 46 90t84 30q34 0 52 -5l18 -5v-55q-34 0 -50.5 -14.5t-24.5 -40.5l-30 -100q-18 -60 -39 -86.5t-51 -36.5v-4q30 -10 58.5 -36.5t41.5 -86.5l30 -130q5 -22 23 -38.5t52 -16.5v-55l-18 -5t-52 -5q-56 0 -86 30t-44 90l-30 130q-11 49 -30 67t-45 18h-15v-325h-120
v325h-15q-26 0 -45 -18t-30 -67l-30 -130q-13 -60 -43.5 -90t-86.5 -30z" />
    <glyph glyph-name="uni0417" unicode="&#x417;" horiz-adv-x="450" 
d="M165 -10q-45 0 -86 6.5t-64 13.5v55h150q64 0 94.5 31.5t30.5 98.5q0 68 -30.5 99t-94.5 31h-80v80h70q56 0 85.5 30.5t29.5 94.5q0 49 -29.5 77t-85.5 28h-130v55q23 8 63 14t77 6q120 0 175 -48.5t55 -131.5q0 -64 -30 -100.5t-75 -57.5v-4q60 -17 92.5 -65t32.5 -108
q0 -101 -57.5 -153t-192.5 -52z" />
    <glyph glyph-name="uni0418" unicode="&#x418;" horiz-adv-x="570" 
d="M70 0v700h115v-460h5l185 460h125v-700h-115v470h-5l-190 -470h-120z" />
    <glyph glyph-name="uni0419" unicode="&#x419;" horiz-adv-x="570" 
d="M70 0v700h115v-460h5l185 460h125v-700h-115v470h-5l-190 -470h-120zM285 755q-49 0 -85.5 21.5t-59.5 58.5l50 50q15 -15 40 -30t55 -15t55 15t40 30l50 -50q-22 -37 -59 -58.5t-86 -21.5z" />
    <glyph glyph-name="uni041A" unicode="&#x41a;" horiz-adv-x="520" 
d="M445 -10q-56 0 -86 30t-44 90l-30 130q-11 49 -30 67t-45 18h-20v-325h-120v700h120v-295h20q19 0 35 18t30 67l30 100q18 60 46 90t84 30q34 0 52 -5l18 -5v-55q-34 0 -50.5 -14.5t-24.5 -40.5l-30 -100q-18 -60 -39 -86.5t-51 -36.5v-4q30 -10 58.5 -36.5t41.5 -86.5
l30 -130q5 -22 23 -38.5t52 -16.5v-55l-18 -5t-52 -5z" />
    <glyph glyph-name="uni041B" unicode="&#x41b;" horiz-adv-x="560" 
d="M70 -10q-34 0 -52 5l-18 5v55q38 0 64.5 34.5t30.5 120.5l25 490h370v-700h-120v620h-134l-21 -410q-4 -80 -23 -128.5t-50.5 -70t-71.5 -21.5z" />
    <glyph glyph-name="uni041C" unicode="&#x41c;" horiz-adv-x="760" 
d="M50 0l40 700h130l158 -475h4l158 475h130l40 -700h-115l-27 474h-4l-129 -389h-110l-129 389h-4l-27 -474h-115z" />
    <glyph glyph-name="uni041D" unicode="&#x41d;" horiz-adv-x="560" 
d="M70 0v700h120v-305h180v305h120v-700h-120v315h-180v-315h-120z" />
    <glyph glyph-name="uni041E" unicode="&#x41e;" horiz-adv-x="550" 
d="M275 -10q-70 0 -121.5 33.5t-80 112.5t-28.5 214t28.5 213.5t80 112.5t121.5 34t121.5 -34t80 -112.5t28.5 -213.5t-28.5 -214t-80 -112.5t-121.5 -33.5zM275 60q21 0 40.5 13.5t35 45.5t25 88.5t9.5 142.5t-9.5 142.5t-25 88.5t-35 45.5t-40.5 13.5t-40.5 -13.5
t-35 -45.5t-25 -88.5t-9.5 -142.5t9.5 -142.5t25 -88.5t35 -45.5t40.5 -13.5z" />
    <glyph glyph-name="uni041F" unicode="&#x41f;" horiz-adv-x="560" 
d="M70 0v700h420v-700h-120v620h-180v-620h-120z" />
    <glyph glyph-name="uni0420" unicode="&#x420;" horiz-adv-x="515" 
d="M70 0v690q38 11 78.5 15.5t96.5 4.5q83 0 134.5 -25t76 -80t24.5 -145q0 -95 -23 -152t-68.5 -82.5t-113.5 -25.5q-11 0 -38.5 3t-46.5 7v-210h-120zM190 280h55q38 0 63.5 16t38.5 55t13 109q0 68 -13 106t-38.5 53.5t-63.5 15.5h-55v-355z" />
    <glyph glyph-name="uni0421" unicode="&#x421;" horiz-adv-x="455" 
d="M280 -10q-77 0 -129.5 31.5t-79 110t-26.5 218.5t26 218.5t76.5 110t122.5 31.5q53 0 95.5 -6t64.5 -14v-55h-120q-42 0 -75 -24.5t-51.5 -86t-18.5 -174.5q0 -112 19 -174t54 -86.5t82 -24.5h120v-55q-22 -7 -64.5 -13.5t-95.5 -6.5z" />
    <glyph glyph-name="uni0422" unicode="&#x422;" horiz-adv-x="450" 
d="M165 0v620h-155v80h430v-80h-155v-620h-120z" />
    <glyph glyph-name="uni0423" unicode="&#x423;" horiz-adv-x="495" 
d="M190 -10q-30 0 -58.5 6.5t-51.5 13.5v55h70q25 0 44 11t34 40t27 84q-59 0 -97.5 34t-52.5 86l-105 380h120l102 -370q6 -22 19 -36t29 -14l85 420h120l-110 -540q-17 -86 -60.5 -128t-114.5 -42z" />
    <glyph glyph-name="uni0424" unicode="&#x424;" horiz-adv-x="710" 
d="M295 -20v65q-124 15 -197 92.5t-73 212.5t73 212.5t197 92.5v65h120v-65q124 -15 197 -92.5t73 -212.5t-73 -212.5t-197 -92.5v-65h-120zM295 120v460q-35 -2 -69.5 -29.5t-57.5 -77.5t-23 -123q0 -72 23 -122.5t57.5 -77.5t69.5 -30zM415 120q35 3 69.5 30t57.5 77.5
t23 122.5q0 73 -23 123t-57.5 77.5t-69.5 29.5v-460z" />
    <glyph glyph-name="uni0425" unicode="&#x425;" horiz-adv-x="500" 
d="M15 0l145 360l-130 340h125l95 -260l95 260h125l-130 -340l145 -360h-125l-110 285l-110 -285h-125z" />
    <glyph glyph-name="uni0426" unicode="&#x426;" horiz-adv-x="570" 
d="M470 -150q-15 30 -25.5 67.5t-14.5 82.5h-360v700h120v-620h170v620h120v-620h65v-230h-75z" />
    <glyph glyph-name="uni0427" unicode="&#x427;" horiz-adv-x="535" 
d="M345 0v260q-19 -4 -47.5 -7t-47.5 -3q-97 0 -148.5 52t-51.5 153v245h120v-245q0 -64 30 -94.5t90 -30.5h55v370h120v-700h-120z" />
    <glyph glyph-name="uni0428" unicode="&#x428;" horiz-adv-x="790" 
d="M70 0v700h120v-620h145v620h120v-620h145v620h120v-700h-650z" />
    <glyph glyph-name="uni0429" unicode="&#x429;" horiz-adv-x="810" 
d="M710 -150q-15 30 -25.5 67.5t-14.5 82.5h-600v700h120v-620h145v620h120v-620h145v620h120v-620h65v-230h-75z" />
    <glyph glyph-name="uni042A" unicode="&#x42a;" horiz-adv-x="575" 
d="M305 -10q-56 0 -96.5 4.5t-78.5 15.5v610h-110v80h230v-280q19 4 46.5 7t38.5 3q101 0 153 -54.5t52 -170.5q0 -109 -55.5 -162t-179.5 -53zM250 65h55q56 0 85.5 32.5t29.5 107.5q0 83 -29.5 114t-85.5 31h-55v-285z" />
    <glyph glyph-name="uni042B" unicode="&#x42b;" horiz-adv-x="735" 
d="M245 -10q-56 0 -96.5 4.5t-78.5 15.5v690h120v-280q19 4 46.5 7t38.5 3q98 0 149 -54.5t51 -170.5q0 -109 -55 -162t-175 -53zM190 65h55q53 0 81.5 32.5t28.5 107.5q0 83 -28.5 114t-81.5 31h-55v-285zM545 0v700h120v-700h-120z" />
    <glyph glyph-name="uni042C" unicode="&#x42c;" horiz-adv-x="515" 
d="M245 -10q-56 0 -96.5 4.5t-78.5 15.5v690h120v-280q19 4 46.5 7t38.5 3q101 0 153 -54.5t52 -170.5q0 -109 -55.5 -162t-179.5 -53zM190 65h55q56 0 85.5 32.5t29.5 107.5q0 83 -29.5 114t-85.5 31h-55v-285z" />
    <glyph glyph-name="uni042D" unicode="&#x42d;" horiz-adv-x="455" 
d="M175 -10q-52 0 -94.5 6.5t-65.5 13.5v55h120q45 0 79 22t53.5 77.5t21.5 155.5h-204v80h204q-4 93 -23 144t-50 71t-71 20h-120v55q23 8 65.5 14t94.5 6q73 0 123 -31.5t76 -110t26 -218.5t-26.5 -218.5t-78.5 -110t-130 -31.5z" />
    <glyph glyph-name="uni042E" unicode="&#x42e;" horiz-adv-x="745" 
d="M475 -10q-65 0 -113.5 30t-77.5 101.5t-34 193.5h-60v-315h-120v700h120v-305h61q5 118 34.5 186.5t78.5 98.5t111 30q68 0 118.5 -34t78.5 -112.5t28 -213.5t-28 -214t-78.5 -112.5t-118.5 -33.5zM475 60q19 0 37.5 13.5t34 45.5t24.5 88.5t9 142.5t-9 142.5t-24.5 88.5
t-34 45.5t-37.5 13.5t-37.5 -13.5t-34 -45.5t-24.5 -88.5t-9 -142.5t9 -142.5t24.5 -88.5t34 -45.5t37.5 -13.5z" />
    <glyph glyph-name="uni042F" unicode="&#x42f;" horiz-adv-x="525" 
d="M80 -10q-30 0 -50 5l-20 5v55q30 0 48 12.5t27 42.5l25 85q14 49 35 76t40 35v4q-27 5 -60 27t-56.5 62.5t-23.5 100.5q0 105 55.5 157.5t179.5 52.5q56 0 97 -4.5t78 -15.5v-690h-120v280h-25q-15 0 -38 -18t-37 -67l-25 -85q-17 -60 -47 -90t-83 -30zM280 360h55v275
h-55q-56 0 -85.5 -32t-29.5 -103q0 -75 29.5 -107.5t85.5 -32.5z" />
    <glyph glyph-name="uni0430" unicode="&#x430;" 
d="M195 -10q-42 0 -77.5 13t-56.5 47.5t-21 99.5t21.5 99.5t59 47.5t84.5 13q23 0 44.5 -3t40.5 -7v40q0 60 -28 80t-77 20h-100v50q23 8 56.5 14t63.5 6q68 0 113.5 -13.5t68.5 -50t23 -106.5v-340h-85l-15 30h-5q-16 -15 -42.5 -27.5t-67.5 -12.5zM235 60q19 0 33.5 6.5
t21.5 13.5v160h-55q-17 0 -34.5 -8t-29 -27.5t-11.5 -54.5t11.5 -54.5t29 -27.5t34.5 -8z" />
    <glyph glyph-name="uni0431" unicode="&#x431;" horiz-adv-x="495" 
d="M250 -10q-65 0 -109.5 25t-67.5 79t-23 141v165q0 113 25.5 178t84 94t155.5 33l120 5l5 -50q-26 -11 -62.5 -20.5t-77.5 -14.5q-67 -7 -98.5 -43.5t-31.5 -126.5q15 11 37.5 18t52.5 7q60 0 102.5 -25t65 -78.5t22.5 -141.5q0 -87 -23 -141t-67.5 -79t-109.5 -25z
M250 55q20 0 38.5 16t30 55t11.5 109q0 68 -12.5 106t-35 53.5t-52.5 15.5q-22 0 -37 -6t-23 -14v-155q0 -70 11.5 -109t30 -55t38.5 -16z" />
    <glyph glyph-name="uni0432" unicode="&#x432;" horiz-adv-x="490" 
d="M245 -10q-60 0 -101 4.5t-79 15.5v480q38 11 78 15.5t92 4.5q98 0 149 -28.5t51 -111.5q0 -32 -12.5 -52.5t-31 -32t-36.5 -18.5v-4q23 -6 46 -21t38.5 -39.5t15.5 -62.5q0 -60 -23.5 -92.5t-70 -45t-116.5 -12.5zM185 60h60q34 0 59.5 18t25.5 67q0 45 -25.5 62.5
t-59.5 17.5h-60v-165zM185 295h50q29 0 52 16.5t23 53.5q0 41 -24.5 58t-50.5 17h-50v-145z" />
    <glyph glyph-name="uni0433" unicode="&#x433;" horiz-adv-x="390" 
d="M65 0v500h315v-75h-195v-425h-120z" />
    <glyph glyph-name="uni0434" unicode="&#x434;" horiz-adv-x="530" 
d="M10 -145v220h45q15 19 28.5 51t16.5 84l15 290h330v-425h60v-220h-75q-15 26 -25.5 63t-14.5 82h-265q-4 -45 -14.5 -82t-25.5 -63h-75zM175 75h150v350h-94l-11 -215q-3 -52 -16.5 -84t-28.5 -51z" />
    <glyph glyph-name="uni0435" unicode="&#x435;" horiz-adv-x="460" 
d="M265 -10q-77 0 -127 25.5t-74 82.5t-24 152t22.5 152t65 82.5t102.5 25.5t102.5 -25.5t65 -82.5t22.5 -152v-35h-260q0 -86 30.5 -120.5t94.5 -34.5h110v-50q-22 -7 -57 -13.5t-73 -6.5zM160 285h140q0 65 -9 99.5t-25 47.5t-36 13t-36 -13t-25 -47.5t-9 -99.5z" />
    <glyph glyph-name="uni0436" unicode="&#x436;" horiz-adv-x="670" 
d="M75 -10q-26 0 -45.5 5l-19.5 5v50q26 0 41 12.5t19 27.5l20 80q11 45 35 66t51 27v4q-23 6 -41.5 26t-34.5 62l-25 65q-4 11 -16.5 20.5t-38.5 9.5v50l19.5 5t45.5 5q45 0 70 -21t40 -59l30 -75q14 -34 24 -44.5t21 -10.5h5v200h120v-200h5q11 0 21.5 10.5t23.5 44.5
l30 75q15 38 40 59t70 21q26 0 45.5 -5l19.5 -5v-50q-26 0 -38 -9.5t-17 -20.5l-25 -65q-16 -42 -34.5 -62t-41.5 -26v-4q27 -6 51 -27t35 -66l20 -80q4 -15 19 -27.5t41 -12.5v-50l-19.5 -5t-45.5 -5q-49 0 -77 24t-38 61l-25 95q-14 55 -55 55h-5v-225h-120v225h-5
q-41 0 -55 -55l-25 -95q-10 -37 -38 -61t-77 -24z" />
    <glyph glyph-name="uni0437" unicode="&#x437;" horiz-adv-x="405" 
d="M145 -10q-37 0 -72 6.5t-58 13.5v50h130q45 0 72.5 18t27.5 67q0 45 -25 62.5t-55 17.5h-85v70h75q30 0 55 17t25 58q0 38 -27.5 54t-72.5 16h-110v50q23 8 58 14t72 6q101 0 153 -28t52 -107q0 -35 -13 -56.5t-33.5 -33t-43.5 -18.5v-4q23 -6 46 -21t38.5 -39.5
t15.5 -62.5q0 -60 -24 -92.5t-73.5 -45t-127.5 -12.5z" />
    <glyph glyph-name="uni0438" unicode="&#x438;" horiz-adv-x="510" 
d="M65 0v500h115v-305h5l130 305h130v-500h-115v315h-5l-140 -315h-120z" />
    <glyph glyph-name="uni0439" unicode="&#x439;" horiz-adv-x="510" 
d="M65 0v500h115v-305h5l130 305h130v-500h-115v315h-5l-140 -315h-120zM250 555q-49 0 -83 20.5t-57 54.5l50 50q15 -15 37.5 -27.5t52.5 -12.5t52.5 12.5t37.5 27.5l50 -50q-22 -34 -56.5 -54.5t-83.5 -20.5z" />
    <glyph glyph-name="uni043A" unicode="&#x43a;" horiz-adv-x="470" 
d="M395 -10q-49 0 -77 24t-38 61l-25 95q-14 55 -55 55h-15v-225h-120v500h120v-200h15q11 0 21.5 10.5t23.5 44.5l30 75q15 38 40 59t70 21q26 0 45.5 -5l19.5 -5v-50q-26 0 -38 -9.5t-17 -20.5l-25 -65q-16 -42 -34.5 -62t-41.5 -26v-4q27 -6 51 -27t35 -66l20 -80
q4 -15 19 -27.5t41 -12.5v-50l-19.5 -5t-45.5 -5z" />
    <glyph glyph-name="uni043B" unicode="&#x43b;" horiz-adv-x="500" 
d="M65 -10q-26 0 -45 5t-20 5v50q26 0 48.5 25t26.5 85l20 340h340v-500h-120v425h-104l-16 -265q-5 -86 -41 -128t-89 -42z" />
    <glyph glyph-name="uni043C" unicode="&#x43c;" horiz-adv-x="660" 
d="M50 0l35 500h130l113 -305h4l113 305h130l35 -500h-115l-22 315h-4l-89 -240h-100l-89 240h-4l-22 -315h-115z" />
    <glyph glyph-name="uni043D" unicode="&#x43d;" horiz-adv-x="505" 
d="M65 0v500h120v-210h135v210h120v-500h-120v215h-135v-215h-120z" />
    <glyph glyph-name="uni043E" unicode="&#x43e;" horiz-adv-x="480" 
d="M240 -10q-65 0 -109.5 25.5t-67.5 82.5t-23 152t23 152t67.5 82.5t109.5 25.5t109.5 -25.5t67.5 -82.5t23 -152t-23 -152t-67.5 -82.5t-109.5 -25.5zM240 55q23 0 41 16.5t28.5 59t10.5 119.5q0 78 -10.5 120t-28.5 58.5t-41 16.5q-22 0 -40.5 -16.5t-29 -58.5
t-10.5 -120q0 -77 10.5 -119.5t29 -59t40.5 -16.5z" />
    <glyph glyph-name="uni043F" unicode="&#x43f;" horiz-adv-x="505" 
d="M65 0v500h375v-500h-120v425h-135v-425h-120z" />
    <glyph glyph-name="uni0440" unicode="&#x440;" horiz-adv-x="490" 
d="M65 -200v700h85l15 -30h5q16 15 42.5 27.5t67.5 12.5q50 0 88.5 -25.5t60 -82.5t21.5 -152t-22 -152t-62.5 -82.5t-95.5 -25.5q-26 0 -47.5 7t-37.5 18v-215h-120zM240 60q25 0 45.5 16.5t32.5 57.5t12 116t-12 116.5t-32.5 57.5t-45.5 16q-19 0 -31.5 -6t-23.5 -14v-340
q8 -7 22 -13.5t33 -6.5z" />
    <glyph glyph-name="uni0441" unicode="&#x441;" horiz-adv-x="395" 
d="M250 -10q-70 0 -116.5 25.5t-70 82.5t-23.5 152t23 152t67.5 82.5t109.5 25.5q38 0 73 -6t57 -14v-50h-110q-30 0 -52.5 -16t-35 -57.5t-12.5 -116.5t13 -116t37.5 -57.5t59.5 -16.5h110v-50q-22 -7 -57 -13.5t-73 -6.5z" />
    <glyph glyph-name="uni0442" unicode="&#x442;" horiz-adv-x="390" 
d="M135 0v425h-125v75h370v-75h-125v-425h-120z" />
    <glyph glyph-name="uni0443" unicode="&#x443;" 
d="M170 -210q-30 0 -55.5 6.5t-44.5 13.5v50h65q25 0 43.5 10.5t32.5 39t24 80.5q-45 0 -79 34t-46 86l-90 390h115l90 -390q6 -25 15.5 -30l9.5 -5l80 425h115l-95 -510q-19 -105 -64 -152.5t-116 -47.5z" />
    <glyph glyph-name="uni0444" unicode="&#x444;" horiz-adv-x="620" 
d="M250 -200v195q-101 11 -158 73t-57 182t57 182t158 73v195h120v-195q101 -11 158 -73t57 -182t-57 -182t-158 -73v-195h-120zM250 65v370q-27 -5 -48.5 -22.5t-34 -56t-12.5 -106.5q0 -67 12.5 -106t34 -56.5t48.5 -22.5zM370 65q28 5 49 22.5t33.5 56.5t12.5 106
q0 68 -12.5 106.5t-33.5 56t-49 22.5v-370z" />
    <glyph glyph-name="uni0445" unicode="&#x445;" horiz-adv-x="440" 
d="M15 0l120 255l-115 245h125l75 -175l75 175h125l-115 -245l120 -255h-125l-80 185l-80 -185h-125z" />
    <glyph glyph-name="uni0446" unicode="&#x446;" horiz-adv-x="520" 
d="M420 -145q-15 26 -25.5 63t-14.5 82h-315v500h120v-425h130v425h120v-425h60v-220h-75z" />
    <glyph glyph-name="uni0447" unicode="&#x447;" horiz-adv-x="480" 
d="M295 0v180q-19 -4 -46.5 -7t-53.5 -3q-42 0 -77.5 12.5t-56.5 46.5t-21 96v175h120v-175q0 -49 25.5 -67t59.5 -18h50v260h120v-500h-120z" />
    <glyph glyph-name="uni0448" unicode="&#x448;" horiz-adv-x="710" 
d="M65 0v500h120v-425h110v425h120v-425h110v425h120v-500h-580z" />
    <glyph glyph-name="uni0449" unicode="&#x449;" horiz-adv-x="730" 
d="M630 -145q-15 26 -25.5 63t-14.5 82h-525v500h120v-425h110v425h120v-425h110v425h120v-425h60v-220h-75z" />
    <glyph glyph-name="uni044A" unicode="&#x44a;" horiz-adv-x="530" 
d="M295 -10q-56 0 -96.5 4.5t-78.5 15.5v415h-100v75h220v-190q19 4 42.5 7t42.5 3q50 0 88.5 -13t60 -48.5t21.5 -103.5q0 -67 -23 -103t-67.5 -49t-109.5 -13zM240 60h55q30 0 55 19.5t25 75.5q0 53 -25 71.5t-55 18.5h-55v-185z" />
    <glyph glyph-name="uni044B" unicode="&#x44b;" horiz-adv-x="675" 
d="M240 -10q-56 0 -96.5 4.5t-78.5 15.5v490h120v-190q19 4 42.5 7t42.5 3q48 0 85 -13t58.5 -48.5t21.5 -103.5q0 -67 -22.5 -103t-66 -49t-106.5 -13zM185 60h55q18 0 35 8t28.5 29t11.5 58q0 35 -11.5 54.5t-28.5 27.5t-35 8h-55v-185zM490 0v500h120v-500h-120z" />
    <glyph glyph-name="uni044C" unicode="&#x44c;" 
d="M240 -10q-56 0 -96.5 4.5t-78.5 15.5v490h120v-190q19 4 42.5 7t42.5 3q50 0 88.5 -13t60 -48.5t21.5 -103.5q0 -67 -23 -103t-67.5 -49t-109.5 -13zM185 60h55q30 0 55 19.5t25 75.5q0 53 -25 71.5t-55 18.5h-55v-185z" />
    <glyph glyph-name="uni044D" unicode="&#x44d;" horiz-adv-x="395" 
d="M145 -10q-37 0 -72 6.5t-58 13.5v50h110q35 0 58.5 14t36.5 49t15 97h-150v75h150q-4 83 -29.5 114t-70.5 31h-110v50q23 8 58 14t72 6q65 0 109.5 -25.5t67.5 -82.5t23 -152t-23.5 -152t-70 -82.5t-116.5 -25.5z" />
    <glyph glyph-name="uni044E" unicode="&#x44e;" horiz-adv-x="665" 
d="M430 -10q-88 0 -138 51t-56 174h-51v-215h-120v500h120v-205h51q8 117 58 166t136 49q63 0 106.5 -25.5t66 -82.5t22.5 -152t-22.5 -152t-66 -82.5t-106.5 -25.5zM430 55q20 0 37 16.5t27.5 59t10.5 119.5q0 78 -10.5 120t-27.5 58.5t-37 16.5t-37 -16.5t-27.5 -58.5
t-10.5 -120q0 -77 10.5 -119.5t27.5 -59t37 -16.5z" />
    <glyph glyph-name="uni044F" unicode="&#x44f;" horiz-adv-x="470" 
d="M75 -10q-26 0 -45.5 5l-19.5 5v50q26 0 38.5 9.5t16.5 20.5l25 65q13 34 28 48t38 20v4q-33 2 -61.5 17t-46.5 44.5t-18 71.5q0 65 25 99.5t70 47.5t105 13q56 0 97 -4.5t78 -15.5v-490h-120v190h-19q-38 0 -56 -45l-30 -75q-15 -37 -39.5 -58.5t-65.5 -21.5zM230 265h55
v175h-55q-30 0 -55 -18.5t-25 -71.5q0 -49 25 -67t55 -18z" />
    <glyph glyph-name="uni0450" unicode="&#x450;" horiz-adv-x="460" 
d="M265 -10q-77 0 -127 25.5t-74 82.5t-24 152t22.5 152t65 82.5t102.5 25.5t102.5 -25.5t65 -82.5t22.5 -152v-35h-260q0 -86 30.5 -120.5t94.5 -34.5h110v-50q-22 -7 -57 -13.5t-73 -6.5zM160 285h140q0 65 -9 99.5t-25 47.5t-36 13t-36 -13t-25 -47.5t-9 -99.5zM185 560
l-75 130h115l35 -130h-75z" />
    <glyph glyph-name="uni0451" unicode="&#x451;" horiz-adv-x="460" 
d="M265 -10q-77 0 -127 25.5t-74 82.5t-24 152t22.5 152t65 82.5t102.5 25.5t102.5 -25.5t65 -82.5t22.5 -152v-35h-260q0 -86 30.5 -120.5t94.5 -34.5h110v-50q-22 -7 -57 -13.5t-73 -6.5zM160 285h140q0 65 -9 99.5t-25 47.5t-36 13t-36 -13t-25 -47.5t-9 -99.5zM95 560
v120h110v-120h-110zM255 560v120h110v-120h-110z" />
    <glyph glyph-name="uni0452" unicode="&#x452;" horiz-adv-x="500" 
d="M310 -10q-26 0 -43 4.5t-32 15.5v50h50q19 0 32 19t13 71v170q0 53 -25 71.5t-55 18.5q-19 0 -33 -6t-22 -14v-390h-120v536h-55v74h55v90h120v-90h135v-54q-22 -7 -55.5 -13.5t-59.5 -6.5h-20v-86q19 15 44.5 22.5t55.5 7.5q43 0 78 -13t56 -47.5t21 -99.5v-170
q0 -82 -36 -121t-104 -39z" />
    <glyph glyph-name="uni0453" unicode="&#x453;" horiz-adv-x="390" 
d="M65 0v500h315v-75h-195v-425h-120zM180 560l35 130h115l-75 -130h-75z" />
    <glyph glyph-name="uni0454" unicode="&#x454;" horiz-adv-x="395" 
d="M250 -10q-70 0 -116.5 25.5t-70 82.5t-23.5 152t23 152t67.5 82.5t109.5 25.5q38 0 73 -6t57 -14v-50h-110q-45 0 -70.5 -31t-29.5 -114h150v-75h-150q3 -62 15.5 -97t36 -49t58.5 -14h110v-50q-22 -7 -57 -13.5t-73 -6.5z" />
    <glyph glyph-name="uni0455" unicode="&#x455;" horiz-adv-x="415" 
d="M170 -10q-37 0 -72 6.5t-58 13.5v50h110q56 0 85.5 16.5t29.5 53.5q0 26 -17 42.5t-43.5 28.5t-57 24.5t-57 30t-43.5 45t-17 69.5q0 83 50.5 111.5t144.5 28.5q38 0 73 -6t57 -14v-50h-110q-41 0 -68 -15t-27 -45q0 -26 17 -42.5t43.5 -28.5t57 -24.5t57 -30t43.5 -44.5
t17 -70q0 -60 -23.5 -92.5t-71 -45t-120.5 -12.5z" />
    <glyph glyph-name="uni0456" unicode="&#x456;" horiz-adv-x="250" 
d="M65 0v500h120v-500h-120zM65 560v120h120v-120h-120z" />
    <glyph glyph-name="uni0457" unicode="&#x457;" horiz-adv-x="240" 
d="M60 0v500h120v-500h-120zM-15 560v120h110v-120h-110zM145 560v120h110v-120h-110z" />
    <glyph glyph-name="uni0458" unicode="&#x458;" horiz-adv-x="265" 
d="M40 -210q-30 0 -55.5 6.5t-44.5 13.5v50h70q18 0 32.5 10.5t23.5 32.5t9 57v540h120v-540q0 -70 -21 -106.5t-56 -50t-78 -13.5zM75 560v120h120v-120h-120z" />
    <glyph glyph-name="uni0459" unicode="&#x459;" horiz-adv-x="720" 
d="M65 -10q-26 0 -45 5t-20 5v50q26 0 48.5 25t26.5 85l20 340h335v-190q19 4 42.5 7t42.5 3q50 0 88.5 -13t60 -48.5t21.5 -103.5q0 -67 -23 -103t-67.5 -49t-109.5 -13q-56 0 -96.5 4.5t-78.5 15.5v415h-99l-16 -265q-5 -86 -41 -128t-89 -42zM430 60h55q30 0 55 19.5
t25 75.5q0 53 -25 71.5t-55 18.5h-55v-185z" />
    <glyph glyph-name="uni045A" unicode="&#x45a;" horiz-adv-x="730" 
d="M495 -10q-56 0 -96.5 4.5t-78.5 15.5v220h-135v-230h-120v500h120v-195h135v195h120v-205q19 4 42.5 7t42.5 3q50 0 88.5 -13t60 -47.5t21.5 -99.5q0 -62 -23 -96t-67.5 -46.5t-109.5 -12.5zM440 60h55q30 0 55 18t25 67t-25 67t-55 18h-55v-170z" />
    <glyph glyph-name="uni045B" unicode="&#x45b;" horiz-adv-x="515" 
d="M75 0v536h-55v74h55v90h120v-90h135v-54q-22 -7 -55.5 -13.5t-59.5 -6.5h-20v-86q19 15 44.5 22.5t55.5 7.5q43 0 78 -13t56 -47.5t21 -99.5v-320h-120v320q0 53 -25 71.5t-55 18.5q-19 0 -33 -6t-22 -14v-390h-120z" />
    <glyph glyph-name="uni045C" unicode="&#x45c;" horiz-adv-x="470" 
d="M395 -10q-49 0 -77 24t-38 61l-25 95q-14 55 -55 55h-15v-225h-120v500h120v-200h15q11 0 21.5 10.5t23.5 44.5l30 75q15 38 40 59t70 21q26 0 45.5 -5l19.5 -5v-50q-26 0 -38 -9.5t-17 -20.5l-25 -65q-16 -42 -34.5 -62t-41.5 -26v-4q27 -6 51 -27t35 -66l20 -80
q4 -15 19 -27.5t41 -12.5v-50l-19.5 -5t-45.5 -5zM200 560l35 130h115l-75 -130h-75z" />
    <glyph glyph-name="uni045D" unicode="&#x45d;" horiz-adv-x="510" 
d="M65 0v500h115v-305h5l130 305h130v-500h-115v315h-5l-140 -315h-120zM210 560l-75 130h115l35 -130h-75z" />
    <glyph glyph-name="uni045E" unicode="&#x45e;" 
d="M170 -210q-30 0 -55.5 6.5t-44.5 13.5v50h65q25 0 43.5 10.5t32.5 39t24 80.5q-45 0 -79 34t-46 86l-90 390h115l90 -390q6 -25 15.5 -30l9.5 -5l80 425h115l-95 -510q-19 -105 -64 -152.5t-116 -47.5zM240 555q-49 0 -83 20.5t-57 54.5l50 50q15 -15 37.5 -27.5
t52.5 -12.5t52.5 12.5t37.5 27.5l50 -50q-22 -34 -56.5 -54.5t-83.5 -20.5z" />
    <glyph glyph-name="uni045F" unicode="&#x45f;" horiz-adv-x="505" 
d="M212 -140l-20 140h-127v500h120v-425h135v425h120v-500h-128l-20 -140h-80z" />
    <glyph glyph-name="uni0462" unicode="&#x462;" horiz-adv-x="550" 
d="M25 540v74h360v-54q-22 -7 -55.5 -13.5t-59.5 -6.5h-245zM280 -10q-56 0 -96.5 4.5t-78.5 15.5v690h120v-280q19 4 46.5 7t38.5 3q101 0 153 -54.5t52 -170.5q0 -109 -55.5 -162t-179.5 -53zM225 65h55q56 0 85.5 32.5t29.5 107.5q0 83 -29.5 114t-85.5 31h-55v-285z" />
    <glyph glyph-name="uni0463" unicode="&#x463;" horiz-adv-x="500" 
d="M265 -10q-56 0 -96.5 4.5t-78.5 15.5v690h120v-390q19 4 42.5 7t42.5 3q50 0 88.5 -13t60 -48.5t21.5 -103.5q0 -67 -23 -103t-67.5 -49t-109.5 -13zM210 60h55q30 0 55 19.5t25 75.5q0 53 -25 71.5t-55 18.5h-55v-185zM10 488v74h365v-54q-22 -7 -55.5 -13.5t-59.5 -6.5
h-250z" />
    <glyph glyph-name="uni046A" unicode="&#x46a;" horiz-adv-x="756" 
d="M68 -10q-34 0 -52 5l-18 5v55q34 0 52 16.5t23 38.5l30 130q20 84 68.5 124.5t151.5 40.5h110q104 0 152.5 -40.5t67.5 -124.5l30 -130q5 -22 23 -38.5t52 -16.5v-55l-18 -5t-52 -5q-56 0 -86 30t-44 90l-30 130q-11 49 -30 67t-45 18h-15v-325h-120v325h-15
q-26 0 -45 -18t-30 -67l-30 -130q-13 -60 -43.5 -90t-86.5 -30zM242 376l-197 280v44h99l222 -324h-124zM115 620v80h528v-80h-528zM393 376l222 324h94v-44l-197 -280h-119z" />
    <glyph glyph-name="uni046B" unicode="&#x46b;" horiz-adv-x="660" 
d="M70 -10q-26 0 -45.5 5l-19.5 5v50q26 0 41 12.5t19 27.5l20 80q12 46 33 74.5t59.5 42t101.5 13.5h102q63 0 101.5 -13.5t60 -42t32.5 -74.5l20 -80q4 -15 19 -27.5t41 -12.5v-50l-19.5 -5t-45.5 -5q-49 0 -77 24t-38 61l-25 95q-14 55 -55 55h-5v-225h-120v225h-5
q-41 0 -55 -55l-25 -95q-10 -37 -38 -61t-77 -24zM196 274l-148 184v42h564v-42l-152 -184h-119l150 186l36 -35h-394l40 35l146 -186h-123z" />
    <glyph glyph-name="uni0472" unicode="&#x472;" horiz-adv-x="550" 
d="M275 -10q-70 0 -121.5 33.5t-80 112.5t-28.5 214t28.5 213.5t80 112.5t121.5 34t121.5 -34t80 -112.5t28.5 -213.5t-28.5 -214t-80 -112.5t-121.5 -33.5zM275 60q21 0 40.5 13.5t35 45.5t25 88.5t9.5 142.5t-9.5 142.5t-25 88.5t-35 45.5t-40.5 13.5t-40.5 -13.5
t-35 -45.5t-25 -88.5t-9.5 -142.5t9.5 -142.5t25 -88.5t35 -45.5t40.5 -13.5zM120 313v74h310v-54q-22 -7 -55.5 -13.5t-59.5 -6.5h-195z" />
    <glyph glyph-name="uni0473" unicode="&#x473;" horiz-adv-x="480" 
d="M240 -10q-65 0 -109.5 25.5t-67.5 82.5t-23 152t23 152t67.5 82.5t109.5 25.5t109.5 -25.5t67.5 -82.5t23 -152t-23 -152t-67.5 -82.5t-109.5 -25.5zM240 55q23 0 41 16.5t28.5 59t10.5 119.5q0 78 -10.5 120t-28.5 58.5t-41 16.5q-22 0 -40.5 -16.5t-29 -58.5
t-10.5 -120q0 -77 10.5 -119.5t29 -59t40.5 -16.5zM85 213v74h310v-54q-22 -7 -55.5 -13.5t-59.5 -6.5h-195z" />
    <glyph glyph-name="uni0474" unicode="&#x474;" horiz-adv-x="523" 
d="M185 0l-170 700h125l118 -545h4l91 417q17 76 51.5 107t83.5 31q34 0 52 -5l18 -5v-55q-29 0 -52 -19t-35 -69l-136 -557h-150z" />
    <glyph glyph-name="uni0475" unicode="&#x475;" horiz-adv-x="470" 
d="M160 0l-145 500h120l98 -375h4l74 282q14 52 45 77.5t74 25.5q26 0 45 -5t20 -5v-50q-22 0 -43 -15.5t-32 -53.5l-110 -381h-150z" />
    <glyph glyph-name="uni0490" unicode="&#x490;" horiz-adv-x="435" 
d="M70 0v700h250l15 90h80v-170h-225v-620h-120z" />
    <glyph glyph-name="uni0491" unicode="&#x491;" horiz-adv-x="390" 
d="M65 0v500h220l15 95h80v-170h-195v-425h-120z" />
    <glyph glyph-name="uni0492" unicode="&#x492;" horiz-adv-x="435" 
d="M70 0v700h345v-80h-225v-620h-120zM13 318v74h310v-54q-22 -7 -55.5 -13.5t-59.5 -6.5h-195z" />
    <glyph glyph-name="uni0493" unicode="&#x493;" horiz-adv-x="390" 
d="M65 0v500h315v-75h-195v-425h-120zM10 213v74h310v-54q-22 -7 -55.5 -13.5t-59.5 -6.5h-195z" />
    <glyph glyph-name="uni0494" unicode="&#x494;" horiz-adv-x="525" 
d="M330 -130q-22 0 -43.5 4.5t-36.5 15.5v50h50q26 0 45.5 24t19.5 76v205q0 56 -30 85.5t-90 29.5h-55v70q19 4 47.5 7t47.5 3q98 0 149 -50.5t51 -144.5v-205q0 -82 -42 -126t-113 -44zM70 0v700h345v-80h-225v-620h-120z" />
    <glyph glyph-name="uni0495" unicode="&#x495;" horiz-adv-x="470" 
d="M280 -110q-26 0 -43 4.5t-32 15.5v50h50q19 0 32 19t13 71v80q0 47 -21.5 70.5t-68.5 23.5q-10 0 -21 -1t-24 -3v60q19 5 44.5 7.5t55.5 2.5q43 0 78 -13t56 -47.5t21 -99.5v-80q0 -82 -36 -121t-104 -39zM65 0v500h315v-75h-195v-425h-120z" />
    <glyph glyph-name="uni0496" unicode="&#x496;" horiz-adv-x="765" 
d="M75 -10q-34 0 -52 5l-18 5v55q34 0 52 16.5t23 38.5l30 130q14 60 42 86.5t58 36.5v4q-30 10 -51 36.5t-39 86.5l-30 100q-7 26 -24 40.5t-51 14.5v55l18 5t52 5q56 0 84 -30t46 -90l30 -100q14 -49 30 -67t35 -18h15v295h120v-295h15q19 0 35 18t30 67l30 100
q18 60 46 90t84 30q34 0 52 -5l18 -5v-55q-34 0 -50.5 -14.5t-24.5 -40.5l-30 -100q-18 -60 -39 -86.5t-51 -36.5v-4q30 -10 58.5 -36.5t41.5 -86.5l26 -114q6 -26 25.5 -36t53.5 -10v-80h-22h-63q-45 0 -74.5 27t-40.5 83l-30 130q-11 49 -30 67t-45 18h-15v-325h-120v325
h-15q-26 0 -45 -18t-30 -67l-30 -130q-13 -60 -43.5 -90t-86.5 -30zM710 -150q-15 30 -25.5 70t-14.5 85l30 75h85v-230h-75z" />
    <glyph glyph-name="uni0497" unicode="&#x497;" horiz-adv-x="690" 
d="M75 -10q-26 0 -45.5 5l-19.5 5v50q26 0 41 12.5t19 27.5l20 80q11 45 35 66t51 27v4q-23 6 -41.5 26t-34.5 62l-25 65q-4 11 -16.5 20.5t-38.5 9.5v50l19.5 5t45.5 5q45 0 70 -21t40 -59l30 -75q14 -34 24 -44.5t21 -10.5h5v200h120v-200h5q11 0 21.5 10.5t23.5 44.5
l30 75q15 38 40 59t70 21q26 0 45.5 -5l19.5 -5v-50q-26 0 -38 -9.5t-17 -20.5l-25 -65q-16 -42 -34.5 -62t-41.5 -26v-4q27 -6 51 -27t35 -66l14 -55q5 -20 19.5 -30t46.5 -10v-75h-26.5h-63.5t-58.5 19t-31.5 56l-25 95q-14 55 -55 55h-5v-225h-120v225h-5q-41 0 -55 -55
l-25 -95q-10 -37 -38 -61t-77 -24zM600 -145q-15 26 -25.5 64.5t-14.5 83.5l35 72h80v-220h-75z" />
    <glyph glyph-name="uni0498" unicode="&#x498;" horiz-adv-x="450" 
d="M179 -145q-15 26 -25.5 63t-14.5 82l115 35v-180h-75zM165 -10q-45 0 -86 6.5t-64 13.5v55h150q64 0 94.5 31.5t30.5 98.5q0 68 -30.5 99t-94.5 31h-80v80h70q56 0 85.5 30.5t29.5 94.5q0 49 -29.5 77t-85.5 28h-130v55q23 8 63 14t77 6q120 0 175 -48.5t55 -131.5
q0 -64 -30 -100.5t-75 -57.5v-4q60 -17 92.5 -65t32.5 -108q0 -101 -57.5 -153t-192.5 -52z" />
    <glyph glyph-name="uni0499" unicode="&#x499;" horiz-adv-x="405" 
d="M169 -145q-15 26 -25.5 63t-14.5 82l115 35v-180h-75zM145 -10q-37 0 -72 6.5t-58 13.5v50h130q45 0 72.5 18t27.5 67q0 45 -25 62.5t-55 17.5h-85v70h75q30 0 55 17t25 58q0 38 -27.5 54t-72.5 16h-110v50q23 8 58 14t72 6q101 0 153 -28t52 -107q0 -35 -13 -56.5
t-33.5 -33t-43.5 -18.5v-4q23 -6 46 -21t38.5 -39.5t15.5 -62.5q0 -60 -24 -92.5t-73.5 -45t-127.5 -12.5z" />
    <glyph glyph-name="uni049A" unicode="&#x49a;" horiz-adv-x="515" 
d="M70 0v700h120v-295h20q19 0 35 18t30 67l30 100q18 60 46 90t84 30q34 0 52 -5l18 -5v-55q-34 0 -50.5 -14.5t-24.5 -40.5l-30 -100q-18 -60 -39 -86.5t-51 -36.5v-4q30 -10 58.5 -36.5t41.5 -86.5l26 -114q6 -26 25.5 -36t53.5 -10v-80h-22h-63q-90 0 -115 110l-30 130
q-11 49 -30 67t-45 18h-20v-325h-120zM460 -150q-15 30 -25.5 70t-14.5 85l30 75h85v-230h-75z" />
    <glyph glyph-name="uni049B" unicode="&#x49b;" horiz-adv-x="490" 
d="M65 0v500h120v-200h15q11 0 21.5 10.5t23.5 44.5l30 75q15 38 40 59t70 21q26 0 45.5 -5l19.5 -5v-50q-26 0 -38 -9.5t-17 -20.5l-25 -65q-16 -42 -34.5 -62t-41.5 -26v-4q27 -6 51 -27t35 -66l14 -55q5 -19 19.5 -29.5t46.5 -10.5v-75h-26.5h-63.5t-58.5 19t-31.5 56
l-25 95q-14 55 -55 55h-15v-225h-120zM400 -145q-15 26 -25.5 64.5t-14.5 83.5l35 72h80v-220h-75z" />
    <glyph glyph-name="uni049C" unicode="&#x49c;" horiz-adv-x="520" 
d="M485 -10q-56 0 -86 30t-44 90l-30 130q-11 49 -30 67t-45 18h-60v-325h-120v700h120v-295h60q19 0 35 18t30 67l30 100q18 60 46 90t84 30q34 0 52 -5l18 -5v-55q-34 0 -50.5 -14.5t-24.5 -40.5l-30 -100q-18 -60 -39 -86.5t-51 -36.5v-4q30 -10 58.5 -36.5t41.5 -86.5
l30 -130q5 -22 23 -38.5t52 -16.5v-55l-18 -5t-52 -5zM213 225v290h54v-290h-54z" />
    <glyph glyph-name="uni049D" unicode="&#x49d;" horiz-adv-x="470" 
d="M435 -10q-49 0 -77 24t-38 61l-25 95q-14 55 -55 55h-55v-225h-120v500h120v-200h55q11 0 21.5 10.5t23.5 44.5l30 75q15 38 40 59t70 21q26 0 45.5 -5l19.5 -5v-50q-26 0 -38 -9.5t-17 -20.5l-25 -65q-16 -42 -34.5 -62t-41.5 -26v-4q27 -6 51 -27t35 -66l20 -80
q4 -15 19 -27.5t41 -12.5v-50l-19.5 -5t-45.5 -5zM208 125v270h54v-270h-54z" />
    <glyph glyph-name="uni04A0" unicode="&#x4a0;" horiz-adv-x="580" 
d="M20 620v80h230l-120 -80h-110zM505 -10q-56 0 -86 30t-44 90l-30 130q-11 49 -30 67t-45 18h-20v-325h-120v700h120v-295h20q19 0 35 18t30 67l30 100q18 60 46 90t84 30q34 0 52 -5l18 -5v-55q-34 0 -50.5 -14.5t-24.5 -40.5l-30 -100q-18 -60 -39 -86.5t-51 -36.5v-4
q30 -10 58.5 -36.5t41.5 -86.5l30 -130q5 -22 23 -38.5t52 -16.5v-55l-18 -5t-52 -5z" />
    <glyph glyph-name="uni04A1" unicode="&#x4a1;" horiz-adv-x="525" 
d="M20 425v75h220l-120 -75h-100zM450 -10q-49 0 -77 24t-38 61l-25 95q-14 55 -55 55h-15v-225h-120v500h120v-200h15q11 0 21.5 10.5t23.5 44.5l30 75q15 38 40 59t70 21q26 0 45.5 -5l19.5 -5v-50q-26 0 -38 -9.5t-17 -20.5l-25 -65q-16 -42 -34.5 -62t-41.5 -26v-4
q27 -6 51 -27t35 -66l20 -80q4 -15 19 -27.5t41 -12.5v-50l-19.5 -5t-45.5 -5z" />
    <glyph glyph-name="uni04A2" unicode="&#x4a2;" horiz-adv-x="560" 
d="M70 0v700h120v-305h180v305h120v-700h-120v315h-180v-315h-120zM480 -150q-15 30 -25.5 67.5t-14.5 82.5h-70v80h185v-230h-75z" />
    <glyph glyph-name="uni04A3" unicode="&#x4a3;" horiz-adv-x="505" 
d="M65 0v500h120v-210h135v210h120v-500h-120v215h-135v-215h-120zM425 -145q-15 26 -25.5 63t-14.5 82h-65v75h180v-220h-75z" />
    <glyph glyph-name="uni04A4" unicode="&#x4a4;" horiz-adv-x="716" 
d="M70 0v700h120v-305h180v305h326v-80h-205v-620h-121v315h-180v-315h-120z" />
    <glyph glyph-name="uni04A5" unicode="&#x4a5;" horiz-adv-x="625" 
d="M65 0v500h120v-210h135v210h295v-75h-175v-425h-120v215h-135v-215h-120z" />
    <glyph glyph-name="uni04AA" unicode="&#x4aa;" horiz-adv-x="455" 
d="M269 -145q-15 26 -25.5 63t-14.5 82l115 35v-180h-75zM280 -10q-77 0 -129.5 31.5t-79 110t-26.5 218.5t26 218.5t76.5 110t122.5 31.5q53 0 95.5 -6t64.5 -14v-55h-120q-42 0 -75 -24.5t-51.5 -86t-18.5 -174.5q0 -112 19 -174t54 -86.5t82 -24.5h120v-55
q-22 -7 -64.5 -13.5t-95.5 -6.5z" />
    <glyph glyph-name="uni04AB" unicode="&#x4ab;" horiz-adv-x="395" 
d="M218 -145q-15 26 -25.5 63t-14.5 82l115 35v-180h-75zM250 -10q-70 0 -116.5 25.5t-70 82.5t-23.5 152t23 152t67.5 82.5t109.5 25.5q38 0 73 -6t57 -14v-50h-110q-30 0 -52.5 -16t-35 -57.5t-12.5 -116.5t13 -116t37.5 -57.5t59.5 -16.5h110v-50q-22 -7 -57 -13.5
t-73 -6.5z" />
    <glyph glyph-name="Ustraitcy" unicode="&#x4ae;" horiz-adv-x="480" 
d="M180 0v210l-175 490h125l110 -341l110 341h125l-175 -490v-210h-120z" />
    <glyph glyph-name="ustraitcy" unicode="&#x4af;" horiz-adv-x="470" 
d="M175 -200v159l-160 541h120l98 -395h4l98 395h120l-164 -555l4 -145h-120z" />
    <glyph glyph-name="Ustraitstrokecy" unicode="&#x4b0;" horiz-adv-x="480" 
d="M180 0v210l-175 490h125l110 -341l110 341h125l-175 -490v-210h-120zM85 183v74h310v-54q-22 -7 -55.5 -13.5t-59.5 -6.5h-195z" />
    <glyph glyph-name="ustraitstrokecy" unicode="&#x4b1;" horiz-adv-x="470" 
d="M175 -200v159l-160 541h120l98 -395h4l98 395h120l-164 -555l4 -145h-120zM80 -56v74h310v-54q-22 -7 -55.5 -13.5t-59.5 -6.5h-195z" />
    <glyph glyph-name="uni04B6" unicode="&#x4b6;" horiz-adv-x="535" 
d="M345 0v260q-19 -4 -47.5 -7t-47.5 -3q-97 0 -148.5 52t-51.5 153v245h120v-245q0 -64 30 -94.5t90 -30.5h55v370h120v-700h-120zM455 -150q-15 30 -25.5 67.5t-14.5 82.5h-70v80h185v-230h-75z" />
    <glyph glyph-name="uni04B7" unicode="&#x4b7;" horiz-adv-x="480" 
d="M295 0v180q-19 -4 -46.5 -7t-53.5 -3q-42 0 -77.5 12.5t-56.5 46.5t-21 96v175h120v-175q0 -49 25.5 -67t59.5 -18h50v260h120v-500h-120zM400 -145q-15 26 -25.5 63t-14.5 82h-65v75h180v-220h-75z" />
    <glyph glyph-name="uni04B8" unicode="&#x4b8;" horiz-adv-x="535" 
d="M345 0v260q-19 -4 -47.5 -7t-47.5 -3q-97 0 -148.5 52t-51.5 153v245h120v-245q0 -64 30 -94.5t90 -30.5h55v370h120v-700h-120zM241 145v290h54v-290h-54z" />
    <glyph glyph-name="uni04B9" unicode="&#x4b9;" horiz-adv-x="480" 
d="M295 0v180q-19 -4 -46.5 -7t-53.5 -3q-42 0 -77.5 12.5t-56.5 46.5t-21 96v175h120v-175q0 -49 25.5 -67t59.5 -18h50v260h120v-500h-120zM204 69v270h54v-270h-54z" />
    <glyph glyph-name="uni04BA" unicode="&#x4ba;" horiz-adv-x="535" 
d="M190 700v-260q19 4 47.5 7t47.5 3q98 0 149 -52t51 -153v-245h-120v245q0 64 -30 94.5t-90 30.5h-55v-370h-120v700h120z" />
    <glyph glyph-name="uni04BB" unicode="&#x4bb;" horiz-adv-x="510" 
d="M70 0v700h120v-220q19 15 44.5 22.5t55.5 7.5q43 0 78 -13t56 -47.5t21 -99.5v-350h-120v350q0 53 -25 71.5t-55 18.5q-19 0 -33 -6t-22 -14v-420h-120z" />
    <glyph glyph-name="uni04C0" unicode="&#x4c0;" horiz-adv-x="260" 
d="M70 0v700h120v-700h-120z" />
    <glyph glyph-name="uni04C1" unicode="&#x4c1;" horiz-adv-x="770" 
d="M75 -10q-34 0 -52 5l-18 5v55q34 0 52 16.5t23 38.5l30 130q14 60 42 86.5t58 36.5v4q-30 10 -51 36.5t-39 86.5l-30 100q-7 26 -24 40.5t-51 14.5v55l18 5t52 5q56 0 84 -30t46 -90l30 -100q14 -49 30 -67t35 -18h15v295h120v-295h15q19 0 35 18t30 67l30 100
q18 60 46 90t84 30q34 0 52 -5l18 -5v-55q-34 0 -50.5 -14.5t-24.5 -40.5l-30 -100q-18 -60 -39 -86.5t-51 -36.5v-4q30 -10 58.5 -36.5t41.5 -86.5l30 -130q5 -22 23 -38.5t52 -16.5v-55l-18 -5t-52 -5q-56 0 -86 30t-44 90l-30 130q-11 49 -30 67t-45 18h-15v-325h-120
v325h-15q-26 0 -45 -18t-30 -67l-30 -130q-13 -60 -43.5 -90t-86.5 -30zM385 755q-49 0 -85.5 21.5t-59.5 58.5l50 50q15 -15 40 -30t55 -15t55 15t40 30l50 -50q-22 -37 -59 -58.5t-86 -21.5z" />
    <glyph glyph-name="uni04C2" unicode="&#x4c2;" horiz-adv-x="670" 
d="M75 -10q-26 0 -45.5 5l-19.5 5v50q26 0 41 12.5t19 27.5l20 80q11 45 35 66t51 27v4q-23 6 -41.5 26t-34.5 62l-25 65q-4 11 -16.5 20.5t-38.5 9.5v50l19.5 5t45.5 5q45 0 70 -21t40 -59l30 -75q14 -34 24 -44.5t21 -10.5h5v200h120v-200h5q11 0 21.5 10.5t23.5 44.5
l30 75q15 38 40 59t70 21q26 0 45.5 -5l19.5 -5v-50q-26 0 -38 -9.5t-17 -20.5l-25 -65q-16 -42 -34.5 -62t-41.5 -26v-4q27 -6 51 -27t35 -66l20 -80q4 -15 19 -27.5t41 -12.5v-50l-19.5 -5t-45.5 -5q-49 0 -77 24t-38 61l-25 95q-14 55 -55 55h-5v-225h-120v225h-5
q-41 0 -55 -55l-25 -95q-10 -37 -38 -61t-77 -24zM335 555q-49 0 -83 20.5t-57 54.5l50 50q15 -15 37.5 -27.5t52.5 -12.5t52.5 12.5t37.5 27.5l50 -50q-22 -34 -56.5 -54.5t-83.5 -20.5z" />
    <glyph glyph-name="uni04CB" unicode="&#x4cb;" horiz-adv-x="535" 
d="M355 -150h-75v230h185v-80h-70q-4 -45 -14.5 -82.5t-25.5 -67.5zM345 0v260q-19 -4 -47.5 -7t-47.5 -3q-97 0 -148.5 52t-51.5 153v245h120v-245q0 -64 30 -94.5t90 -30.5h55v370h120v-700h-120z" />
    <glyph glyph-name="uni04CC" unicode="&#x4cc;" horiz-adv-x="480" 
d="M310 -145h-75v220h180v-75h-65q-4 -45 -14.5 -82t-25.5 -63zM295 0v180q-19 -4 -46.5 -7t-53.5 -3q-42 0 -77.5 12.5t-56.5 46.5t-21 96v175h120v-175q0 -49 25.5 -67t59.5 -18h50v260h120v-500h-120z" />
    <glyph glyph-name="uni04CF" unicode="&#x4cf;" horiz-adv-x="260" 
d="M70 0v700h120v-700h-120z" />
    <glyph glyph-name="uni04D0" unicode="&#x4d0;" horiz-adv-x="540" 
d="M15 0l180 700h150l180 -700h-125l-44 175h-172l-44 -175h-125zM200 255h139l-67 285h-4zM270 755q-49 0 -85.5 21.5t-59.5 58.5l50 50q15 -15 40 -30t55 -15t55 15t40 30l50 -50q-22 -37 -59 -58.5t-86 -21.5z" />
    <glyph glyph-name="uni04D1" unicode="&#x4d1;" 
d="M195 -10q-42 0 -77.5 13t-56.5 47.5t-21 99.5t21.5 99.5t59 47.5t84.5 13q23 0 44.5 -3t40.5 -7v40q0 60 -28 80t-77 20h-100v50q23 8 56.5 14t63.5 6q68 0 113.5 -13.5t68.5 -50t23 -106.5v-340h-85l-15 30h-5q-16 -15 -42.5 -27.5t-67.5 -12.5zM235 60q19 0 33.5 6.5
t21.5 13.5v160h-55q-17 0 -34.5 -8t-29 -27.5t-11.5 -54.5t11.5 -54.5t29 -27.5t34.5 -8zM238 555q-49 0 -83 20.5t-57 54.5l50 50q15 -15 37.5 -27.5t52.5 -12.5t52.5 12.5t37.5 27.5l50 -50q-22 -34 -56.5 -54.5t-83.5 -20.5z" />
    <glyph glyph-name="uni04D2" unicode="&#x4d2;" horiz-adv-x="540" 
d="M15 0l180 700h150l180 -700h-125l-44 175h-172l-44 -175h-125zM200 255h139l-67 285h-4zM295 770v120h110v-120h-110zM135 770v120h110v-120h-110z" />
    <glyph glyph-name="uni04D3" unicode="&#x4d3;" 
d="M195 -10q-42 0 -77.5 13t-56.5 47.5t-21 99.5t21.5 99.5t59 47.5t84.5 13q23 0 44.5 -3t40.5 -7v40q0 60 -28 80t-77 20h-100v50q23 8 56.5 14t63.5 6q68 0 113.5 -13.5t68.5 -50t23 -106.5v-340h-85l-15 30h-5q-16 -15 -42.5 -27.5t-67.5 -12.5zM235 60q19 0 33.5 6.5
t21.5 13.5v160h-55q-17 0 -34.5 -8t-29 -27.5t-11.5 -54.5t11.5 -54.5t29 -27.5t34.5 -8zM263 570v120h110v-120h-110zM103 570v120h110v-120h-110z" />
    <glyph glyph-name="uni04D4" unicode="&#x4d4;" horiz-adv-x="755" 
d="M0 0l240 700h475v-80h-245v-215h215v-80h-215v-245h245v-80h-365v175h-170l-61 -175h-119zM207 255h143v365h-19z" />
    <glyph glyph-name="uni04D5" unicode="&#x4d5;" horiz-adv-x="710" 
d="M205 -10q-47 0 -84.5 12.5t-59 45t-21.5 92.5t21.5 92.5t59 45t84.5 12.5q23 0 44.5 -3t40.5 -7v60q0 60 -28 80t-77 20h-100v50q23 8 56.5 14t63.5 6q56 0 92 -17t58 -43q23 26 53.5 43t71.5 17q60 0 102.5 -26.5t65 -83.5t22.5 -150v-30h-260v-10q0 -84 31.5 -117
t93.5 -33h110v-50q-22 -7 -57 -13.5t-73 -6.5q-64 0 -100.5 17t-59.5 43q-22 -26 -56 -43t-94 -17zM235 60q13 0 23.5 3t18.5 7.5t13 9.5v140h-55q-26 0 -50.5 -17.5t-24.5 -62.5t24.5 -62.5t50.5 -17.5zM410 290h140q0 63 -9 96.5t-25 46t-36 12.5t-36 -12.5t-25 -46
t-9 -96.5z" />
    <glyph glyph-name="uni04D6" unicode="&#x4d6;" 
d="M70 0v700h365v-80h-245v-215h215v-80h-215v-245h245v-80h-365zM268 755q-49 0 -85.5 21.5t-59.5 58.5l50 50q15 -15 40 -30t55 -15t55 15t40 30l50 -50q-22 -37 -59 -58.5t-86 -21.5z" />
    <glyph glyph-name="uni04D7" unicode="&#x4d7;" horiz-adv-x="460" 
d="M265 -10q-77 0 -127 25.5t-74 82.5t-24 152t22.5 152t65 82.5t102.5 25.5t102.5 -25.5t65 -82.5t22.5 -152v-35h-260q0 -86 30.5 -120.5t94.5 -34.5h110v-50q-22 -7 -57 -13.5t-73 -6.5zM160 285h140q0 65 -9 99.5t-25 47.5t-36 13t-36 -13t-25 -47.5t-9 -99.5zM230 555
q-49 0 -83 20.5t-57 54.5l50 50q15 -15 37.5 -27.5t52.5 -12.5t52.5 12.5t37.5 27.5l50 -50q-22 -34 -56.5 -54.5t-83.5 -20.5z" />
    <glyph glyph-name="uni04D8" unicode="&#x4d8;" horiz-adv-x="517" 
d="M259 -14q-67 0 -115 35t-73.5 114t-25.5 211v49h311q0 87 -16.5 139.5t-50.5 76.5t-86 24h-114v55q24 8 55.5 13t66.5 5q90 0 147.5 -35.5t85.5 -115t28 -211.5t-25 -211t-72.5 -114t-115.5 -35zM259 60q28 0 50 20.5t34.5 76t12.5 158.5h-201q0 -103 14.5 -158.5t38 -76
t51.5 -20.5z" />
    <glyph glyph-name="uni04D9" unicode="&#x4d9;" horiz-adv-x="460" 
d="M195 510q78 0 127.5 -25.5t73.5 -82.5t24 -152t-22.5 -152t-65 -82.5t-102.5 -25.5t-102.5 25.5t-65 82.5t-22.5 152v35h260q0 86 -30.5 120.5t-94.5 34.5h-110v50q23 8 58 14t72 6zM300 215h-140q0 -65 9 -99.5t25 -47.5t36 -13t36 13t25 47.5t9 99.5z" />
    <glyph glyph-name="uni04DC" unicode="&#x4dc;" horiz-adv-x="770" 
d="M75 -10q-34 0 -52 5l-18 5v55q34 0 52 16.5t23 38.5l30 130q14 60 42 86.5t58 36.5v4q-30 10 -51 36.5t-39 86.5l-30 100q-7 26 -24 40.5t-51 14.5v55l18 5t52 5q56 0 84 -30t46 -90l30 -100q14 -49 30 -67t35 -18h15v295h120v-295h15q19 0 35 18t30 67l30 100
q18 60 46 90t84 30q34 0 52 -5l18 -5v-55q-34 0 -50.5 -14.5t-24.5 -40.5l-30 -100q-18 -60 -39 -86.5t-51 -36.5v-4q30 -10 58.5 -36.5t41.5 -86.5l30 -130q5 -22 23 -38.5t52 -16.5v-55l-18 -5t-52 -5q-56 0 -86 30t-44 90l-30 130q-11 49 -30 67t-45 18h-15v-325h-120
v325h-15q-26 0 -45 -18t-30 -67l-30 -130q-13 -60 -43.5 -90t-86.5 -30zM410 770v120h110v-120h-110zM250 770v120h110v-120h-110z" />
    <glyph glyph-name="uni04DD" unicode="&#x4dd;" horiz-adv-x="670" 
d="M75 -10q-26 0 -45.5 5l-19.5 5v50q26 0 41 12.5t19 27.5l20 80q11 45 35 66t51 27v4q-23 6 -41.5 26t-34.5 62l-25 65q-4 11 -16.5 20.5t-38.5 9.5v50l19.5 5t45.5 5q45 0 70 -21t40 -59l30 -75q14 -34 24 -44.5t21 -10.5h5v200h120v-200h5q11 0 21.5 10.5t23.5 44.5
l30 75q15 38 40 59t70 21q26 0 45.5 -5l19.5 -5v-50q-26 0 -38 -9.5t-17 -20.5l-25 -65q-16 -42 -34.5 -62t-41.5 -26v-4q27 -6 51 -27t35 -66l20 -80q4 -15 19 -27.5t41 -12.5v-50l-19.5 -5t-45.5 -5q-49 0 -77 24t-38 61l-25 95q-14 55 -55 55h-5v-225h-120v225h-5
q-41 0 -55 -55l-25 -95q-10 -37 -38 -61t-77 -24zM360 570v120h110v-120h-110zM200 570v120h110v-120h-110z" />
    <glyph glyph-name="uni04DE" unicode="&#x4de;" horiz-adv-x="450" 
d="M165 -10q-45 0 -86 6.5t-64 13.5v55h150q64 0 94.5 31.5t30.5 98.5q0 68 -30.5 99t-94.5 31h-80v80h70q56 0 85.5 30.5t29.5 94.5q0 49 -29.5 77t-85.5 28h-130v55q23 8 63 14t77 6q120 0 175 -48.5t55 -131.5q0 -64 -30 -100.5t-75 -57.5v-4q60 -17 92.5 -65t32.5 -108
q0 -101 -57.5 -153t-192.5 -52zM199 770v120h110v-120h-110zM39 770v120h110v-120h-110z" />
    <glyph glyph-name="uni04DF" unicode="&#x4df;" horiz-adv-x="405" 
d="M145 -10q-37 0 -72 6.5t-58 13.5v50h130q45 0 72.5 18t27.5 67q0 45 -25 62.5t-55 17.5h-85v70h75q30 0 55 17t25 58q0 38 -27.5 54t-72.5 16h-110v50q23 8 58 14t72 6q101 0 153 -28t52 -107q0 -35 -13 -56.5t-33.5 -33t-43.5 -18.5v-4q23 -6 46 -21t38.5 -39.5
t15.5 -62.5q0 -60 -24 -92.5t-73.5 -45t-127.5 -12.5zM184 570v120h110v-120h-110zM24 570v120h110v-120h-110z" />
    <glyph glyph-name="uni04E2" unicode="&#x4e2;" horiz-adv-x="570" 
d="M70 0v700h115v-460h5l185 460h125v-700h-115v470h-5l-190 -470h-120zM167 785v70h240v-70h-240z" />
    <glyph glyph-name="uni04E3" unicode="&#x4e3;" horiz-adv-x="510" 
d="M65 0v500h115v-305h5l130 305h130v-500h-115v315h-5l-140 -315h-120zM135 600v70h240v-70h-240z" />
    <glyph glyph-name="uni04E4" unicode="&#x4e4;" horiz-adv-x="570" 
d="M70 0v700h115v-460h5l185 460h125v-700h-115v470h-5l-190 -470h-120zM310 770v120h110v-120h-110zM150 770v120h110v-120h-110z" />
    <glyph glyph-name="uni04E5" unicode="&#x4e5;" horiz-adv-x="510" 
d="M65 0v500h115v-305h5l130 305h130v-500h-115v315h-5l-140 -315h-120zM280 570v120h110v-120h-110zM120 570v120h110v-120h-110z" />
    <glyph glyph-name="uni04E6" unicode="&#x4e6;" horiz-adv-x="550" 
d="M275 -10q-70 0 -121.5 33.5t-80 112.5t-28.5 214t28.5 213.5t80 112.5t121.5 34t121.5 -34t80 -112.5t28.5 -213.5t-28.5 -214t-80 -112.5t-121.5 -33.5zM275 60q21 0 40.5 13.5t35 45.5t25 88.5t9.5 142.5t-9.5 142.5t-25 88.5t-35 45.5t-40.5 13.5t-40.5 -13.5
t-35 -45.5t-25 -88.5t-9.5 -142.5t9.5 -142.5t25 -88.5t35 -45.5t40.5 -13.5zM300 770v120h110v-120h-110zM140 770v120h110v-120h-110z" />
    <glyph glyph-name="uni04E7" unicode="&#x4e7;" horiz-adv-x="480" 
d="M240 -10q-65 0 -109.5 25.5t-67.5 82.5t-23 152t23 152t67.5 82.5t109.5 25.5t109.5 -25.5t67.5 -82.5t23 -152t-23 -152t-67.5 -82.5t-109.5 -25.5zM240 55q23 0 41 16.5t28.5 59t10.5 119.5q0 78 -10.5 120t-28.5 58.5t-41 16.5q-22 0 -40.5 -16.5t-29 -58.5
t-10.5 -120q0 -77 10.5 -119.5t29 -59t40.5 -16.5zM265 570v120h110v-120h-110zM105 570v120h110v-120h-110z" />
    <glyph glyph-name="uni04E8" unicode="&#x4e8;" horiz-adv-x="550" 
d="M275 -10q-70 0 -121.5 33.5t-80 112.5t-28.5 214t28.5 213.5t80 112.5t121.5 34t121.5 -34t80 -112.5t28.5 -213.5t-28.5 -214t-80 -112.5t-121.5 -33.5zM275 60q21 0 40.5 13.5t35 45.5t25 88.5t9.5 142.5t-9.5 142.5t-25 88.5t-35 45.5t-40.5 13.5t-40.5 -13.5
t-35 -45.5t-25 -88.5t-9.5 -142.5t9.5 -142.5t25 -88.5t35 -45.5t40.5 -13.5zM120 313v74h310v-54q-22 -7 -55.5 -13.5t-59.5 -6.5h-195z" />
    <glyph glyph-name="uni04E9" unicode="&#x4e9;" horiz-adv-x="480" 
d="M240 -10q-65 0 -109.5 25.5t-67.5 82.5t-23 152t23 152t67.5 82.5t109.5 25.5t109.5 -25.5t67.5 -82.5t23 -152t-23 -152t-67.5 -82.5t-109.5 -25.5zM240 55q23 0 41 16.5t28.5 59t10.5 119.5q0 78 -10.5 120t-28.5 58.5t-41 16.5q-22 0 -40.5 -16.5t-29 -58.5
t-10.5 -120q0 -77 10.5 -119.5t29 -59t40.5 -16.5zM85 213v74h310v-54q-22 -7 -55.5 -13.5t-59.5 -6.5h-195z" />
    <glyph glyph-name="uni04EE" unicode="&#x4ee;" horiz-adv-x="495" 
d="M190 -10q-30 0 -58.5 6.5t-51.5 13.5v55h70q25 0 44 11t34 40t27 84q-59 0 -97.5 34t-52.5 86l-105 380h120l102 -370q6 -22 19 -36t29 -14l85 420h120l-110 -540q-17 -86 -60.5 -128t-114.5 -42zM127 785v70h240v-70h-240z" />
    <glyph glyph-name="uni04EF" unicode="&#x4ef;" 
d="M170 -210q-30 0 -55.5 6.5t-44.5 13.5v50h65q25 0 43.5 10.5t32.5 39t24 80.5q-45 0 -79 34t-46 86l-90 390h115l90 -390q6 -25 15.5 -30l9.5 -5l80 425h115l-95 -510q-19 -105 -64 -152.5t-116 -47.5zM118 600v70h240v-70h-240z" />
    <glyph glyph-name="uni04F0" unicode="&#x4f0;" horiz-adv-x="495" 
d="M190 -10q-30 0 -58.5 6.5t-51.5 13.5v55h70q25 0 44 11t34 40t27 84q-59 0 -97.5 34t-52.5 86l-105 380h120l102 -370q6 -22 19 -36t29 -14l85 420h120l-110 -540q-17 -86 -60.5 -128t-114.5 -42zM273 770v120h110v-120h-110zM113 770v120h110v-120h-110z" />
    <glyph glyph-name="uni04F1" unicode="&#x4f1;" 
d="M170 -210q-30 0 -55.5 6.5t-44.5 13.5v50h65q25 0 43.5 10.5t32.5 39t24 80.5q-45 0 -79 34t-46 86l-90 390h115l90 -390q6 -25 15.5 -30l9.5 -5l80 425h115l-95 -510q-19 -105 -64 -152.5t-116 -47.5zM263 570v120h110v-120h-110zM103 570v120h110v-120h-110z" />
    <glyph glyph-name="uni04F2" unicode="&#x4f2;" horiz-adv-x="495" 
d="M190 -10q-30 0 -58.5 6.5t-51.5 13.5v55h70q25 0 44 11t34 40t27 84q-59 0 -97.5 34t-52.5 86l-105 380h120l102 -370q6 -22 19 -36t29 -14l85 420h120l-110 -540q-17 -86 -60.5 -128t-114.5 -42zM274 760l45 130h105l-85 -130h-65zM144 760l45 130h105l-85 -130h-65z
" />
    <glyph glyph-name="uni04F3" unicode="&#x4f3;" 
d="M170 -210q-30 0 -55.5 6.5t-44.5 13.5v50h65q25 0 43.5 10.5t32.5 39t24 80.5q-45 0 -79 34t-46 86l-90 390h115l90 -390q6 -25 15.5 -30l9.5 -5l80 425h115l-95 -510q-19 -105 -64 -152.5t-116 -47.5zM264 560l45 130h105l-85 -130h-65zM134 560l45 130h105l-85 -130
h-65z" />
    <glyph glyph-name="uni04F4" unicode="&#x4f4;" horiz-adv-x="535" 
d="M345 0v260q-19 -4 -47.5 -7t-47.5 -3q-97 0 -148.5 52t-51.5 153v245h120v-245q0 -64 30 -94.5t90 -30.5h55v370h120v-700h-120zM293 770v120h110v-120h-110zM133 770v120h110v-120h-110z" />
    <glyph glyph-name="uni04F5" unicode="&#x4f5;" horiz-adv-x="480" 
d="M295 0v180q-19 -4 -46.5 -7t-53.5 -3q-42 0 -77.5 12.5t-56.5 46.5t-21 96v175h120v-175q0 -49 25.5 -67t59.5 -18h50v260h120v-500h-120zM255 570v120h110v-120h-110zM95 570v120h110v-120h-110z" />
    <glyph glyph-name="uni04F6" unicode="&#x4f6;" horiz-adv-x="435" 
d="M70 0v700h345v-80h-225v-620h-120zM180 -150q-15 30 -25.5 67.5t-14.5 82.5h-70v80h185v-230h-75z" />
    <glyph glyph-name="uni04F7" unicode="&#x4f7;" horiz-adv-x="390" 
d="M65 0v500h315v-75h-195v-425h-120zM170 -145q-15 26 -25.5 63t-14.5 82h-65v75h180v-220h-75z" />
    <glyph glyph-name="uni04F8" unicode="&#x4f8;" horiz-adv-x="735" 
d="M245 -10q-56 0 -96.5 4.5t-78.5 15.5v690h120v-280q19 4 46.5 7t38.5 3q98 0 149 -54.5t51 -170.5q0 -109 -55 -162t-175 -53zM190 65h55q53 0 81.5 32.5t28.5 107.5q0 83 -28.5 114t-81.5 31h-55v-285zM545 0v700h120v-700h-120zM393 770v120h110v-120h-110zM233 770
v120h110v-120h-110z" />
    <glyph glyph-name="uni04F9" unicode="&#x4f9;" horiz-adv-x="675" 
d="M240 -10q-56 0 -96.5 4.5t-78.5 15.5v490h120v-190q19 4 42.5 7t42.5 3q48 0 85 -13t58.5 -48.5t21.5 -103.5q0 -67 -22.5 -103t-66 -49t-106.5 -13zM185 60h55q18 0 35 8t28.5 29t11.5 58q0 35 -11.5 54.5t-28.5 27.5t-35 8h-55v-185zM490 0v500h120v-500h-120zM363 570
v120h110v-120h-110zM203 570v120h110v-120h-110z" />
    <glyph glyph-name="uni051A" unicode="&#x51a;" horiz-adv-x="555" 
d="M275 -10q-70 0 -121.5 33.5t-80 112.5t-28.5 214t28.5 213.5t80 112.5t121.5 34t121.5 -34t80 -112.5t28.5 -213.5q0 -112 -22.5 -182t-52.5 -108q45 0 71.5 -6t48.5 -14v-50h-275zM275 60q21 0 40.5 13.5t35 45.5t25 88.5t9.5 142.5t-9.5 142.5t-25 88.5t-35 45.5
t-40.5 13.5t-40.5 -13.5t-35 -45.5t-25 -88.5t-9.5 -142.5q0 -90 10 -147t26.5 -88t35.5 -43t38 -12z" />
    <glyph glyph-name="uni051B" unicode="&#x51b;" horiz-adv-x="490" 
d="M305 -200v215q-16 -11 -37.5 -18t-47.5 -7q-55 0 -95.5 25.5t-62.5 82.5t-22 152t24 152t72.5 82.5t123.5 25.5q53 0 90.5 -7.5t74.5 -22.5v-680h-120zM250 60q19 0 33.5 6.5t21.5 13.5v360h-45q-30 0 -52.5 -16t-35 -57.5t-12.5 -116.5t12 -116t32.5 -57.5t45.5 -16.5z
" />
    <glyph glyph-name="uni051C" unicode="&#x51c;" horiz-adv-x="750" 
d="M140 0l-125 700h125l85 -505h4l96 375h100l96 -375h4l85 505h125l-125 -700h-130l-103 390h-4l-103 -390h-130z" />
    <glyph glyph-name="uni051D" unicode="&#x51d;" horiz-adv-x="650" 
d="M115 0l-100 500h120l61 -350h4l80 250h90l80 -250h4l61 350h120l-100 -500h-130l-78 245h-4l-78 -245h-130z" />
    <glyph glyph-name="uni0524" unicode="&#x524;" horiz-adv-x="560" 
d="M70 0v700h420v-700h-120v620h-180v-620h-120zM480 -150q-15 30 -25.5 67.5t-14.5 82.5h-70v80h185v-230h-75z" />
    <glyph glyph-name="uni0525" unicode="&#x525;" horiz-adv-x="505" 
d="M65 0v500h375v-500h-120v425h-135v-425h-120zM425 -145q-15 26 -25.5 63t-14.5 82h-65v75h180v-220h-75z" />
    <glyph glyph-name="uni1EA0" unicode="&#x1ea0;" horiz-adv-x="540" 
d="M15 0l180 700h150l180 -700h-125l-44 175h-172l-44 -175h-125zM200 255h139l-67 285h-4zM221 -151v99h99v-99h-99z" />
    <glyph glyph-name="uni1EA1" unicode="&#x1ea1;" 
d="M195 -10q-42 0 -77.5 13t-56.5 47.5t-21 99.5t21.5 99.5t59 47.5t84.5 13q23 0 44.5 -3t40.5 -7v40q0 60 -28 80t-77 20h-100v50q23 8 56.5 14t63.5 6q68 0 113.5 -13.5t68.5 -50t23 -106.5v-340h-85l-15 30h-5q-16 -15 -42.5 -27.5t-67.5 -12.5zM235 60q19 0 33.5 6.5
t21.5 13.5v160h-55q-17 0 -34.5 -8t-29 -27.5t-11.5 -54.5t11.5 -54.5t29 -27.5t34.5 -8zM189 -151v99h99v-99h-99z" />
    <glyph glyph-name="uni1EA2" unicode="&#x1ea2;" horiz-adv-x="540" 
d="M15 0l180 700h150l180 -700h-125l-44 175h-172l-44 -175h-125zM200 255h139l-67 285h-4zM231 743q0 21 11 35t22 25.5t11 24.5q0 37 -42 37h-50v63q8 3 24 5.5t33 2.5q36 0 62 -6.5t40.5 -28.5t14.5 -69q0 -18 -14.5 -32.5t-29.5 -27.5t-15 -29h-67z" />
    <glyph glyph-name="uni1EA3" unicode="&#x1ea3;" 
d="M195 -10q-42 0 -77.5 13t-56.5 47.5t-21 99.5t21.5 99.5t59 47.5t84.5 13q23 0 44.5 -3t40.5 -7v40q0 60 -28 80t-77 20h-100v50q23 8 56.5 14t63.5 6q68 0 113.5 -13.5t68.5 -50t23 -106.5v-340h-85l-15 30h-5q-16 -15 -42.5 -27.5t-67.5 -12.5zM235 60q19 0 33.5 6.5
t21.5 13.5v160h-55q-17 0 -34.5 -8t-29 -27.5t-11.5 -54.5t11.5 -54.5t29 -27.5t34.5 -8zM199 543q0 21 11 35t22 25.5t11 24.5q0 37 -42 37h-50v63q8 3 24 5.5t33 2.5q36 0 62 -6.5t40.5 -28.5t14.5 -69q0 -18 -14.5 -32.5t-29.5 -27.5t-15 -29h-67z" />
    <glyph glyph-name="uni1EA4" unicode="&#x1ea4;" horiz-adv-x="540" 
d="M15 0l180 700h150l180 -700h-125l-44 175h-172l-44 -175h-125zM200 255h139l-67 285h-4zM137 750l80 130h105l80 -130h-77l-56 70l-56 -70h-76zM381 817l35 130h115l-75 -130h-75z" />
    <glyph glyph-name="uni1EA5" unicode="&#x1ea5;" 
d="M195 -10q-42 0 -77.5 13t-56.5 47.5t-21 99.5t21.5 99.5t59 47.5t84.5 13q23 0 44.5 -3t40.5 -7v40q0 60 -28 80t-77 20h-100v50q23 8 56.5 14t63.5 6q68 0 113.5 -13.5t68.5 -50t23 -106.5v-340h-85l-15 30h-5q-16 -15 -42.5 -27.5t-67.5 -12.5zM235 60q19 0 33.5 6.5
t21.5 13.5v160h-55q-17 0 -34.5 -8t-29 -27.5t-11.5 -54.5t11.5 -54.5t29 -27.5t34.5 -8zM105 550l80 130h105l80 -130h-77l-56 70l-56 -70h-76zM349 617l35 130h115l-75 -130h-75z" />
    <glyph glyph-name="uni1EA6" unicode="&#x1ea6;" horiz-adv-x="540" 
d="M15 0l180 700h150l180 -700h-125l-44 175h-172l-44 -175h-125zM200 255h139l-67 285h-4zM137 750l80 130h105l80 -130h-77l-56 70l-56 -70h-76zM399 845l-75 130h115l35 -130h-75z" />
    <glyph glyph-name="uni1EA7" unicode="&#x1ea7;" 
d="M195 -10q-42 0 -77.5 13t-56.5 47.5t-21 99.5t21.5 99.5t59 47.5t84.5 13q23 0 44.5 -3t40.5 -7v40q0 60 -28 80t-77 20h-100v50q23 8 56.5 14t63.5 6q68 0 113.5 -13.5t68.5 -50t23 -106.5v-340h-85l-15 30h-5q-16 -15 -42.5 -27.5t-67.5 -12.5zM235 60q19 0 33.5 6.5
t21.5 13.5v160h-55q-17 0 -34.5 -8t-29 -27.5t-11.5 -54.5t11.5 -54.5t29 -27.5t34.5 -8zM105 550l80 130h105l80 -130h-77l-56 70l-56 -70h-76zM367 645l-75 130h115l35 -130h-75z" />
    <glyph glyph-name="uni1EA8" unicode="&#x1ea8;" horiz-adv-x="540" 
d="M15 0l180 700h150l180 -700h-125l-44 175h-172l-44 -175h-125zM200 255h139l-67 285h-4zM137 750l80 130h105l80 -130h-77l-56 70l-56 -70h-76zM386 811q0 21 11 35t22 25.5t11 24.5q0 37 -42 37h-50v63q8 3 24 5.5t33 2.5q36 0 62 -6.5t40.5 -28.5t14.5 -69
q0 -18 -14.5 -32.5t-29.5 -27.5t-15 -29h-67z" />
    <glyph glyph-name="uni1EA9" unicode="&#x1ea9;" 
d="M195 -10q-42 0 -77.5 13t-56.5 47.5t-21 99.5t21.5 99.5t59 47.5t84.5 13q23 0 44.5 -3t40.5 -7v40q0 60 -28 80t-77 20h-100v50q23 8 56.5 14t63.5 6q68 0 113.5 -13.5t68.5 -50t23 -106.5v-340h-85l-15 30h-5q-16 -15 -42.5 -27.5t-67.5 -12.5zM235 60q19 0 33.5 6.5
t21.5 13.5v160h-55q-17 0 -34.5 -8t-29 -27.5t-11.5 -54.5t11.5 -54.5t29 -27.5t34.5 -8zM105 550l80 130h105l80 -130h-77l-56 70l-56 -70h-76zM354 611q0 21 11 35t22 25.5t11 24.5q0 37 -42 37h-50v63q8 3 24 5.5t33 2.5q36 0 62 -6.5t40.5 -28.5t14.5 -69
q0 -18 -14.5 -32.5t-29.5 -27.5t-15 -29h-67z" />
    <glyph glyph-name="uni1EAA" unicode="&#x1eaa;" horiz-adv-x="540" 
d="M15 0l180 700h150l180 -700h-125l-44 175h-172l-44 -175h-125zM200 255h139l-67 285h-4zM137 750l80 130h105l80 -130h-77l-56 70l-56 -70h-76zM320 912q-17 0 -29.5 7.5t-23 17.5t-19.5 17.5t-18 7.5q-25 0 -25 -40h-60q0 68 20.5 94t54.5 26q17 0 29.5 -7.5t23 -17.5
t19.5 -17.5t18 -7.5q25 0 25 40h60q0 -67 -20.5 -93.5t-54.5 -26.5z" />
    <glyph glyph-name="uni1EAB" unicode="&#x1eab;" 
d="M195 -10q-42 0 -77.5 13t-56.5 47.5t-21 99.5t21.5 99.5t59 47.5t84.5 13q23 0 44.5 -3t40.5 -7v40q0 60 -28 80t-77 20h-100v50q23 8 56.5 14t63.5 6q68 0 113.5 -13.5t68.5 -50t23 -106.5v-340h-85l-15 30h-5q-16 -15 -42.5 -27.5t-67.5 -12.5zM235 60q19 0 33.5 6.5
t21.5 13.5v160h-55q-17 0 -34.5 -8t-29 -27.5t-11.5 -54.5t11.5 -54.5t29 -27.5t34.5 -8zM105 550l80 130h105l80 -130h-77l-56 70l-56 -70h-76zM288 712q-17 0 -29.5 7.5t-23 17.5t-19.5 17.5t-18 7.5q-25 0 -25 -40h-60q0 68 20.5 94t54.5 26q17 0 29.5 -7.5t23 -17.5
t19.5 -17.5t18 -7.5q25 0 25 40h60q0 -67 -20.5 -93.5t-54.5 -26.5z" />
    <glyph glyph-name="uni1EAC" unicode="&#x1eac;" horiz-adv-x="540" 
d="M15 0l180 700h150l180 -700h-125l-44 175h-172l-44 -175h-125zM200 255h139l-67 285h-4zM221 -151v99h99v-99h-99zM137 750l80 130h105l80 -130h-77l-56 70l-56 -70h-76z" />
    <glyph glyph-name="uni1EAD" unicode="&#x1ead;" 
d="M195 -10q-42 0 -77.5 13t-56.5 47.5t-21 99.5t21.5 99.5t59 47.5t84.5 13q23 0 44.5 -3t40.5 -7v40q0 60 -28 80t-77 20h-100v50q23 8 56.5 14t63.5 6q68 0 113.5 -13.5t68.5 -50t23 -106.5v-340h-85l-15 30h-5q-16 -15 -42.5 -27.5t-67.5 -12.5zM235 60q19 0 33.5 6.5
t21.5 13.5v160h-55q-17 0 -34.5 -8t-29 -27.5t-11.5 -54.5t11.5 -54.5t29 -27.5t34.5 -8zM189 -151v99h99v-99h-99zM105 550l80 130h105l80 -130h-77l-56 70l-56 -70h-76z" />
    <glyph glyph-name="uni1EAE" unicode="&#x1eae;" horiz-adv-x="540" 
d="M15 0l180 700h150l180 -700h-125l-44 175h-172l-44 -175h-125zM200 255h139l-67 285h-4zM270 765q-49 0 -83 20.5t-57 54.5l50 50q15 -15 37.5 -27.5t52.5 -12.5t52.5 12.5t37.5 27.5l50 -50q-22 -34 -56.5 -54.5t-83.5 -20.5zM237 919l35 130h115l-75 -130h-75z" />
    <glyph glyph-name="uni1EAF" unicode="&#x1eaf;" 
d="M195 -10q-42 0 -77.5 13t-56.5 47.5t-21 99.5t21.5 99.5t59 47.5t84.5 13q23 0 44.5 -3t40.5 -7v40q0 60 -28 80t-77 20h-100v50q23 8 56.5 14t63.5 6q68 0 113.5 -13.5t68.5 -50t23 -106.5v-340h-85l-15 30h-5q-16 -15 -42.5 -27.5t-67.5 -12.5zM235 60q19 0 33.5 6.5
t21.5 13.5v160h-55q-17 0 -34.5 -8t-29 -27.5t-11.5 -54.5t11.5 -54.5t29 -27.5t34.5 -8zM238 565q-49 0 -83 20.5t-57 54.5l50 50q15 -15 37.5 -27.5t52.5 -12.5t52.5 12.5t37.5 27.5l50 -50q-22 -34 -56.5 -54.5t-83.5 -20.5zM205 719l35 130h115l-75 -130h-75z" />
    <glyph glyph-name="uni1EB0" unicode="&#x1eb0;" horiz-adv-x="540" 
d="M15 0l180 700h150l180 -700h-125l-44 175h-172l-44 -175h-125zM200 255h139l-67 285h-4zM270 765q-49 0 -83 20.5t-57 54.5l50 50q15 -15 37.5 -27.5t52.5 -12.5t52.5 12.5t37.5 27.5l50 -50q-22 -34 -56.5 -54.5t-83.5 -20.5zM236 909l-75 130h115l35 -130h-75z" />
    <glyph glyph-name="uni1EB1" unicode="&#x1eb1;" 
d="M195 -10q-42 0 -77.5 13t-56.5 47.5t-21 99.5t21.5 99.5t59 47.5t84.5 13q23 0 44.5 -3t40.5 -7v40q0 60 -28 80t-77 20h-100v50q23 8 56.5 14t63.5 6q68 0 113.5 -13.5t68.5 -50t23 -106.5v-340h-85l-15 30h-5q-16 -15 -42.5 -27.5t-67.5 -12.5zM235 60q19 0 33.5 6.5
t21.5 13.5v160h-55q-17 0 -34.5 -8t-29 -27.5t-11.5 -54.5t11.5 -54.5t29 -27.5t34.5 -8zM238 565q-49 0 -83 20.5t-57 54.5l50 50q15 -15 37.5 -27.5t52.5 -12.5t52.5 12.5t37.5 27.5l50 -50q-22 -34 -56.5 -54.5t-83.5 -20.5zM204 709l-75 130h115l35 -130h-75z" />
    <glyph glyph-name="uni1EB2" unicode="&#x1eb2;" horiz-adv-x="540" 
d="M15 0l180 700h150l180 -700h-125l-44 175h-172l-44 -175h-125zM200 255h139l-67 285h-4zM270 765q-49 0 -83 20.5t-57 54.5l50 50q15 -15 37.5 -27.5t52.5 -12.5t52.5 12.5t37.5 27.5l50 -50q-22 -34 -56.5 -54.5t-83.5 -20.5zM219 894q0 21 11 35t22 25.5t11 24.5
q0 37 -42 37h-50v63q8 3 24 5.5t33 2.5q36 0 62 -6.5t40.5 -28.5t14.5 -69q0 -18 -14.5 -32.5t-29.5 -27.5t-15 -29h-67z" />
    <glyph glyph-name="uni1EB3" unicode="&#x1eb3;" 
d="M195 -10q-42 0 -77.5 13t-56.5 47.5t-21 99.5t21.5 99.5t59 47.5t84.5 13q23 0 44.5 -3t40.5 -7v40q0 60 -28 80t-77 20h-100v50q23 8 56.5 14t63.5 6q68 0 113.5 -13.5t68.5 -50t23 -106.5v-340h-85l-15 30h-5q-16 -15 -42.5 -27.5t-67.5 -12.5zM235 60q19 0 33.5 6.5
t21.5 13.5v160h-55q-17 0 -34.5 -8t-29 -27.5t-11.5 -54.5t11.5 -54.5t29 -27.5t34.5 -8zM238 565q-49 0 -83 20.5t-57 54.5l50 50q15 -15 37.5 -27.5t52.5 -12.5t52.5 12.5t37.5 27.5l50 -50q-22 -34 -56.5 -54.5t-83.5 -20.5zM187 694q0 21 11 35t22 25.5t11 24.5
q0 37 -42 37h-50v63q8 3 24 5.5t33 2.5q36 0 62 -6.5t40.5 -28.5t14.5 -69q0 -18 -14.5 -32.5t-29.5 -27.5t-15 -29h-67z" />
    <glyph glyph-name="uni1EB4" unicode="&#x1eb4;" horiz-adv-x="540" 
d="M15 0l180 700h150l180 -700h-125l-44 175h-172l-44 -175h-125zM200 255h139l-67 285h-4zM270 765q-49 0 -83 20.5t-57 54.5l50 50q15 -15 37.5 -27.5t52.5 -12.5t52.5 12.5t37.5 27.5l50 -50q-22 -34 -56.5 -54.5t-83.5 -20.5zM320 918q-17 0 -29.5 7.5t-23 17.5
t-19.5 17.5t-18 7.5q-25 0 -25 -40h-60q0 68 20.5 94t54.5 26q17 0 29.5 -7.5t23 -17.5t19.5 -17.5t18 -7.5q25 0 25 40h60q0 -67 -20.5 -93.5t-54.5 -26.5z" />
    <glyph glyph-name="uni1EB5" unicode="&#x1eb5;" 
d="M195 -10q-42 0 -77.5 13t-56.5 47.5t-21 99.5t21.5 99.5t59 47.5t84.5 13q23 0 44.5 -3t40.5 -7v40q0 60 -28 80t-77 20h-100v50q23 8 56.5 14t63.5 6q68 0 113.5 -13.5t68.5 -50t23 -106.5v-340h-85l-15 30h-5q-16 -15 -42.5 -27.5t-67.5 -12.5zM235 60q19 0 33.5 6.5
t21.5 13.5v160h-55q-17 0 -34.5 -8t-29 -27.5t-11.5 -54.5t11.5 -54.5t29 -27.5t34.5 -8zM238 565q-49 0 -83 20.5t-57 54.5l50 50q15 -15 37.5 -27.5t52.5 -12.5t52.5 12.5t37.5 27.5l50 -50q-22 -34 -56.5 -54.5t-83.5 -20.5zM288 718q-17 0 -29.5 7.5t-23 17.5
t-19.5 17.5t-18 7.5q-25 0 -25 -40h-60q0 68 20.5 94t54.5 26q17 0 29.5 -7.5t23 -17.5t19.5 -17.5t18 -7.5q25 0 25 40h60q0 -67 -20.5 -93.5t-54.5 -26.5z" />
    <glyph glyph-name="uni1EB6" unicode="&#x1eb6;" horiz-adv-x="540" 
d="M15 0l180 700h150l180 -700h-125l-44 175h-172l-44 -175h-125zM200 255h139l-67 285h-4zM221 -151v99h99v-99h-99zM270 765q-49 0 -83 20.5t-57 54.5l50 50q15 -15 37.5 -27.5t52.5 -12.5t52.5 12.5t37.5 27.5l50 -50q-22 -34 -56.5 -54.5t-83.5 -20.5z" />
    <glyph glyph-name="uni1EB7" unicode="&#x1eb7;" 
d="M195 -10q-42 0 -77.5 13t-56.5 47.5t-21 99.5t21.5 99.5t59 47.5t84.5 13q23 0 44.5 -3t40.5 -7v40q0 60 -28 80t-77 20h-100v50q23 8 56.5 14t63.5 6q68 0 113.5 -13.5t68.5 -50t23 -106.5v-340h-85l-15 30h-5q-16 -15 -42.5 -27.5t-67.5 -12.5zM235 60q19 0 33.5 6.5
t21.5 13.5v160h-55q-17 0 -34.5 -8t-29 -27.5t-11.5 -54.5t11.5 -54.5t29 -27.5t34.5 -8zM189 -151v99h99v-99h-99zM238 565q-49 0 -83 20.5t-57 54.5l50 50q15 -15 37.5 -27.5t52.5 -12.5t52.5 12.5t37.5 27.5l50 -50q-22 -34 -56.5 -54.5t-83.5 -20.5z" />
    <glyph glyph-name="uni1EB8" unicode="&#x1eb8;" 
d="M70 0v700h365v-80h-245v-215h215v-80h-215v-245h245v-80h-365zM189 -151v99h99v-99h-99z" />
    <glyph glyph-name="uni1EB9" unicode="&#x1eb9;" horiz-adv-x="460" 
d="M265 -10q-77 0 -127 25.5t-74 82.5t-24 152t22.5 152t65 82.5t102.5 25.5t102.5 -25.5t65 -82.5t22.5 -152v-35h-260q0 -86 30.5 -120.5t94.5 -34.5h110v-50q-22 -7 -57 -13.5t-73 -6.5zM160 285h140q0 65 -9 99.5t-25 47.5t-36 13t-36 -13t-25 -47.5t-9 -99.5zM181 -151
v99h99v-99h-99z" />
    <glyph glyph-name="uni1EBA" unicode="&#x1eba;" 
d="M70 0v700h365v-80h-245v-215h215v-80h-215v-245h245v-80h-365zM210 743q0 21 11 35t22 25.5t11 24.5q0 37 -42 37h-50v63q8 3 24 5.5t33 2.5q36 0 62 -6.5t40.5 -28.5t14.5 -69q0 -18 -14.5 -32.5t-29.5 -27.5t-15 -29h-67z" />
    <glyph glyph-name="uni1EBB" unicode="&#x1ebb;" horiz-adv-x="460" 
d="M265 -10q-77 0 -127 25.5t-74 82.5t-24 152t22.5 152t65 82.5t102.5 25.5t102.5 -25.5t65 -82.5t22.5 -152v-35h-260q0 -86 30.5 -120.5t94.5 -34.5h110v-50q-22 -7 -57 -13.5t-73 -6.5zM160 285h140q0 65 -9 99.5t-25 47.5t-36 13t-36 -13t-25 -47.5t-9 -99.5zM191 543
q0 21 11 35t22 25.5t11 24.5q0 37 -42 37h-50v63q8 3 24 5.5t33 2.5q36 0 62 -6.5t40.5 -28.5t14.5 -69q0 -18 -14.5 -32.5t-29.5 -27.5t-15 -29h-67z" />
    <glyph glyph-name="uni1EBC" unicode="&#x1ebc;" 
d="M70 0v700h365v-80h-245v-215h215v-80h-215v-245h245v-80h-365zM303 760q-17 0 -29.5 7.5t-23 17.5t-19.5 17.5t-18 7.5q-25 0 -25 -40h-60q0 68 20.5 94t54.5 26q17 0 29.5 -7.5t23 -17.5t19.5 -17.5t18 -7.5q25 0 25 40h60q0 -67 -20.5 -93.5t-54.5 -26.5z" />
    <glyph glyph-name="uni1EBD" unicode="&#x1ebd;" horiz-adv-x="460" 
d="M265 -10q-77 0 -127 25.5t-74 82.5t-24 152t22.5 152t65 82.5t102.5 25.5t102.5 -25.5t65 -82.5t22.5 -152v-35h-260q0 -86 30.5 -120.5t94.5 -34.5h110v-50q-22 -7 -57 -13.5t-73 -6.5zM160 285h140q0 65 -9 99.5t-25 47.5t-36 13t-36 -13t-25 -47.5t-9 -99.5zM280 560
q-17 0 -29.5 7.5t-23 17.5t-19.5 17.5t-18 7.5q-25 0 -25 -40h-60q0 68 20.5 94t54.5 26q17 0 29.5 -7.5t23 -17.5t19.5 -17.5t18 -7.5q25 0 25 40h60q0 -67 -20.5 -93.5t-54.5 -26.5z" />
    <glyph glyph-name="uni1EBE" unicode="&#x1ebe;" 
d="M70 0v700h365v-80h-245v-215h215v-80h-215v-245h245v-80h-365zM105 750l80 130h105l80 -130h-77l-56 70l-56 -70h-76zM349 817l35 130h115l-75 -130h-75z" />
    <glyph glyph-name="uni1EBF" unicode="&#x1ebf;" horiz-adv-x="460" 
d="M265 -10q-77 0 -127 25.5t-74 82.5t-24 152t22.5 152t65 82.5t102.5 25.5t102.5 -25.5t65 -82.5t22.5 -152v-35h-260q0 -86 30.5 -120.5t94.5 -34.5h110v-50q-22 -7 -57 -13.5t-73 -6.5zM160 285h140q0 65 -9 99.5t-25 47.5t-36 13t-36 -13t-25 -47.5t-9 -99.5zM97 550
l80 130h105l80 -130h-77l-56 70l-56 -70h-76zM341 617l35 130h115l-75 -130h-75z" />
    <glyph glyph-name="uni1EC0" unicode="&#x1ec0;" 
d="M70 0v700h365v-80h-245v-215h215v-80h-215v-245h245v-80h-365zM105 750l80 130h105l80 -130h-77l-56 70l-56 -70h-76zM367 845l-75 130h115l35 -130h-75z" />
    <glyph glyph-name="uni1EC1" unicode="&#x1ec1;" horiz-adv-x="460" 
d="M265 -10q-77 0 -127 25.5t-74 82.5t-24 152t22.5 152t65 82.5t102.5 25.5t102.5 -25.5t65 -82.5t22.5 -152v-35h-260q0 -86 30.5 -120.5t94.5 -34.5h110v-50q-22 -7 -57 -13.5t-73 -6.5zM160 285h140q0 65 -9 99.5t-25 47.5t-36 13t-36 -13t-25 -47.5t-9 -99.5zM97 550
l80 130h105l80 -130h-77l-56 70l-56 -70h-76zM359 645l-75 130h115l35 -130h-75z" />
    <glyph glyph-name="uni1EC2" unicode="&#x1ec2;" 
d="M70 0v700h365v-80h-245v-215h215v-80h-215v-245h245v-80h-365zM105 750l80 130h105l80 -130h-77l-56 70l-56 -70h-76zM354 811q0 21 11 35t22 25.5t11 24.5q0 37 -42 37h-50v63q8 3 24 5.5t33 2.5q36 0 62 -6.5t40.5 -28.5t14.5 -69q0 -18 -14.5 -32.5t-29.5 -27.5
t-15 -29h-67z" />
    <glyph glyph-name="uni1EC3" unicode="&#x1ec3;" horiz-adv-x="460" 
d="M265 -10q-77 0 -127 25.5t-74 82.5t-24 152t22.5 152t65 82.5t102.5 25.5t102.5 -25.5t65 -82.5t22.5 -152v-35h-260q0 -86 30.5 -120.5t94.5 -34.5h110v-50q-22 -7 -57 -13.5t-73 -6.5zM160 285h140q0 65 -9 99.5t-25 47.5t-36 13t-36 -13t-25 -47.5t-9 -99.5zM97 550
l80 130h105l80 -130h-77l-56 70l-56 -70h-76zM346 611q0 21 11 35t22 25.5t11 24.5q0 37 -42 37h-50v63q8 3 24 5.5t33 2.5q36 0 62 -6.5t40.5 -28.5t14.5 -69q0 -18 -14.5 -32.5t-29.5 -27.5t-15 -29h-67z" />
    <glyph glyph-name="uni1EC4" unicode="&#x1ec4;" 
d="M70 0v700h365v-80h-245v-215h215v-80h-215v-245h245v-80h-365zM115 750l80 130h105l80 -130h-77l-56 70l-56 -70h-76zM298 912q-17 0 -29.5 7.5t-23 17.5t-19.5 17.5t-18 7.5q-25 0 -25 -40h-60q0 68 20.5 94t54.5 26q17 0 29.5 -7.5t23 -17.5t19.5 -17.5t18 -7.5
q25 0 25 40h60q0 -67 -20.5 -93.5t-54.5 -26.5z" />
    <glyph glyph-name="uni1EC5" unicode="&#x1ec5;" horiz-adv-x="460" 
d="M265 -10q-77 0 -127 25.5t-74 82.5t-24 152t22.5 152t65 82.5t102.5 25.5t102.5 -25.5t65 -82.5t22.5 -152v-35h-260q0 -86 30.5 -120.5t94.5 -34.5h110v-50q-22 -7 -57 -13.5t-73 -6.5zM160 285h140q0 65 -9 99.5t-25 47.5t-36 13t-36 -13t-25 -47.5t-9 -99.5zM97 550
l80 130h105l80 -130h-77l-56 70l-56 -70h-76zM280 712q-17 0 -29.5 7.5t-23 17.5t-19.5 17.5t-18 7.5q-25 0 -25 -40h-60q0 68 20.5 94t54.5 26q17 0 29.5 -7.5t23 -17.5t19.5 -17.5t18 -7.5q25 0 25 40h60q0 -67 -20.5 -93.5t-54.5 -26.5z" />
    <glyph glyph-name="uni1EC6" unicode="&#x1ec6;" 
d="M70 0v700h365v-80h-245v-215h215v-80h-215v-245h245v-80h-365zM197 -152v99h99v-99h-99zM115 750l80 130h105l80 -130h-77l-56 70l-56 -70h-76z" />
    <glyph glyph-name="uni1EC7" unicode="&#x1ec7;" horiz-adv-x="460" 
d="M265 -10q-77 0 -127 25.5t-74 82.5t-24 152t22.5 152t65 82.5t102.5 25.5t102.5 -25.5t65 -82.5t22.5 -152v-35h-260q0 -86 30.5 -120.5t94.5 -34.5h110v-50q-22 -7 -57 -13.5t-73 -6.5zM160 285h140q0 65 -9 99.5t-25 47.5t-36 13t-36 -13t-25 -47.5t-9 -99.5zM181 -151
v99h99v-99h-99zM97 550l80 130h105l80 -130h-77l-56 70l-56 -70h-76z" />
    <glyph glyph-name="uni1EC8" unicode="&#x1ec8;" horiz-adv-x="260" 
d="M70 0v700h120v-700h-120zM91 743q0 21 11 35t22 25.5t11 24.5q0 37 -42 37h-50v63q8 3 24 5.5t33 2.5q36 0 62 -6.5t40.5 -28.5t14.5 -69q0 -18 -14.5 -32.5t-29.5 -27.5t-15 -29h-67z" />
    <glyph glyph-name="uni1EC9" unicode="&#x1ec9;" horiz-adv-x="260" 
d="M70 0v500h120v-500h-120zM91 543q0 21 11 35t22 25.5t11 24.5q0 37 -42 37h-50v63q8 3 24 5.5t33 2.5q36 0 62 -6.5t40.5 -28.5t14.5 -69q0 -18 -14.5 -32.5t-29.5 -27.5t-15 -29h-67z" />
    <glyph glyph-name="uni1ECA" unicode="&#x1eca;" horiz-adv-x="260" 
d="M70 0v700h120v-700h-120zM81 -151v99h99v-99h-99z" />
    <glyph glyph-name="uni1ECB" unicode="&#x1ecb;" horiz-adv-x="260" 
d="M70 0v500h120v-500h-120zM70 560v120h120v-120h-120zM81 -151v99h99v-99h-99z" />
    <glyph glyph-name="uni1ECC" unicode="&#x1ecc;" horiz-adv-x="550" 
d="M275 -10q-70 0 -121.5 33.5t-80 112.5t-28.5 214t28.5 213.5t80 112.5t121.5 34t121.5 -34t80 -112.5t28.5 -213.5t-28.5 -214t-80 -112.5t-121.5 -33.5zM275 60q21 0 40.5 13.5t35 45.5t25 88.5t9.5 142.5t-9.5 142.5t-25 88.5t-35 45.5t-40.5 13.5t-40.5 -13.5
t-35 -45.5t-25 -88.5t-9.5 -142.5t9.5 -142.5t25 -88.5t35 -45.5t40.5 -13.5zM226 -151v99h99v-99h-99z" />
    <glyph glyph-name="uni1ECD" unicode="&#x1ecd;" horiz-adv-x="480" 
d="M240 -10q-65 0 -109.5 25.5t-67.5 82.5t-23 152t23 152t67.5 82.5t109.5 25.5t109.5 -25.5t67.5 -82.5t23 -152t-23 -152t-67.5 -82.5t-109.5 -25.5zM240 55q23 0 41 16.5t28.5 59t10.5 119.5q0 78 -10.5 120t-28.5 58.5t-41 16.5q-22 0 -40.5 -16.5t-29 -58.5
t-10.5 -120q0 -77 10.5 -119.5t29 -59t40.5 -16.5zM191 -151v99h99v-99h-99z" />
    <glyph glyph-name="uni1ECE" unicode="&#x1ece;" horiz-adv-x="550" 
d="M275 -10q-70 0 -121.5 33.5t-80 112.5t-28.5 214t28.5 213.5t80 112.5t121.5 34t121.5 -34t80 -112.5t28.5 -213.5t-28.5 -214t-80 -112.5t-121.5 -33.5zM275 60q21 0 40.5 13.5t35 45.5t25 88.5t9.5 142.5t-9.5 142.5t-25 88.5t-35 45.5t-40.5 13.5t-40.5 -13.5
t-35 -45.5t-25 -88.5t-9.5 -142.5t9.5 -142.5t25 -88.5t35 -45.5t40.5 -13.5zM236 743q0 21 11 35t22 25.5t11 24.5q0 37 -42 37h-50v63q8 3 24 5.5t33 2.5q36 0 62 -6.5t40.5 -28.5t14.5 -69q0 -18 -14.5 -32.5t-29.5 -27.5t-15 -29h-67z" />
    <glyph glyph-name="uni1ECF" unicode="&#x1ecf;" horiz-adv-x="480" 
d="M240 -10q-65 0 -109.5 25.5t-67.5 82.5t-23 152t23 152t67.5 82.5t109.5 25.5t109.5 -25.5t67.5 -82.5t23 -152t-23 -152t-67.5 -82.5t-109.5 -25.5zM240 55q23 0 41 16.5t28.5 59t10.5 119.5q0 78 -10.5 120t-28.5 58.5t-41 16.5q-22 0 -40.5 -16.5t-29 -58.5
t-10.5 -120q0 -77 10.5 -119.5t29 -59t40.5 -16.5zM201 543q0 21 11 35t22 25.5t11 24.5q0 37 -42 37h-50v63q8 3 24 5.5t33 2.5q36 0 62 -6.5t40.5 -28.5t14.5 -69q0 -18 -14.5 -32.5t-29.5 -27.5t-15 -29h-67z" />
    <glyph glyph-name="uni1ED0" unicode="&#x1ed0;" horiz-adv-x="550" 
d="M275 -10q-70 0 -121.5 33.5t-80 112.5t-28.5 214t28.5 213.5t80 112.5t121.5 34t121.5 -34t80 -112.5t28.5 -213.5t-28.5 -214t-80 -112.5t-121.5 -33.5zM275 60q21 0 40.5 13.5t35 45.5t25 88.5t9.5 142.5t-9.5 142.5t-25 88.5t-35 45.5t-40.5 13.5t-40.5 -13.5
t-35 -45.5t-25 -88.5t-9.5 -142.5t9.5 -142.5t25 -88.5t35 -45.5t40.5 -13.5zM142 750l80 130h105l80 -130h-77l-56 70l-56 -70h-76zM386 817l35 130h115l-75 -130h-75z" />
    <glyph glyph-name="uni1ED1" unicode="&#x1ed1;" horiz-adv-x="480" 
d="M240 -10q-65 0 -109.5 25.5t-67.5 82.5t-23 152t23 152t67.5 82.5t109.5 25.5t109.5 -25.5t67.5 -82.5t23 -152t-23 -152t-67.5 -82.5t-109.5 -25.5zM240 55q23 0 41 16.5t28.5 59t10.5 119.5q0 78 -10.5 120t-28.5 58.5t-41 16.5q-22 0 -40.5 -16.5t-29 -58.5
t-10.5 -120q0 -77 10.5 -119.5t29 -59t40.5 -16.5zM107 550l80 130h105l80 -130h-77l-56 70l-56 -70h-76zM351 617l35 130h115l-75 -130h-75z" />
    <glyph glyph-name="uni1ED2" unicode="&#x1ed2;" horiz-adv-x="550" 
d="M275 -10q-70 0 -121.5 33.5t-80 112.5t-28.5 214t28.5 213.5t80 112.5t121.5 34t121.5 -34t80 -112.5t28.5 -213.5t-28.5 -214t-80 -112.5t-121.5 -33.5zM275 60q21 0 40.5 13.5t35 45.5t25 88.5t9.5 142.5t-9.5 142.5t-25 88.5t-35 45.5t-40.5 13.5t-40.5 -13.5
t-35 -45.5t-25 -88.5t-9.5 -142.5t9.5 -142.5t25 -88.5t35 -45.5t40.5 -13.5zM142 750l80 130h105l80 -130h-77l-56 70l-56 -70h-76zM404 845l-75 130h115l35 -130h-75z" />
    <glyph glyph-name="uni1ED3" unicode="&#x1ed3;" horiz-adv-x="480" 
d="M240 -10q-65 0 -109.5 25.5t-67.5 82.5t-23 152t23 152t67.5 82.5t109.5 25.5t109.5 -25.5t67.5 -82.5t23 -152t-23 -152t-67.5 -82.5t-109.5 -25.5zM240 55q23 0 41 16.5t28.5 59t10.5 119.5q0 78 -10.5 120t-28.5 58.5t-41 16.5q-22 0 -40.5 -16.5t-29 -58.5
t-10.5 -120q0 -77 10.5 -119.5t29 -59t40.5 -16.5zM107 550l80 130h105l80 -130h-77l-56 70l-56 -70h-76zM369 645l-75 130h115l35 -130h-75z" />
    <glyph glyph-name="uni1ED4" unicode="&#x1ed4;" horiz-adv-x="550" 
d="M275 -10q-70 0 -121.5 33.5t-80 112.5t-28.5 214t28.5 213.5t80 112.5t121.5 34t121.5 -34t80 -112.5t28.5 -213.5t-28.5 -214t-80 -112.5t-121.5 -33.5zM275 60q21 0 40.5 13.5t35 45.5t25 88.5t9.5 142.5t-9.5 142.5t-25 88.5t-35 45.5t-40.5 13.5t-40.5 -13.5
t-35 -45.5t-25 -88.5t-9.5 -142.5t9.5 -142.5t25 -88.5t35 -45.5t40.5 -13.5zM142 750l80 130h105l80 -130h-77l-56 70l-56 -70h-76zM391 811q0 21 11 35t22 25.5t11 24.5q0 37 -42 37h-50v63q8 3 24 5.5t33 2.5q36 0 62 -6.5t40.5 -28.5t14.5 -69q0 -18 -14.5 -32.5
t-29.5 -27.5t-15 -29h-67z" />
    <glyph glyph-name="uni1ED5" unicode="&#x1ed5;" horiz-adv-x="480" 
d="M240 -10q-65 0 -109.5 25.5t-67.5 82.5t-23 152t23 152t67.5 82.5t109.5 25.5t109.5 -25.5t67.5 -82.5t23 -152t-23 -152t-67.5 -82.5t-109.5 -25.5zM240 55q23 0 41 16.5t28.5 59t10.5 119.5q0 78 -10.5 120t-28.5 58.5t-41 16.5q-22 0 -40.5 -16.5t-29 -58.5
t-10.5 -120q0 -77 10.5 -119.5t29 -59t40.5 -16.5zM107 550l80 130h105l80 -130h-77l-56 70l-56 -70h-76zM356 611q0 21 11 35t22 25.5t11 24.5q0 37 -42 37h-50v63q8 3 24 5.5t33 2.5q36 0 62 -6.5t40.5 -28.5t14.5 -69q0 -18 -14.5 -32.5t-29.5 -27.5t-15 -29h-67z" />
    <glyph glyph-name="uni1ED6" unicode="&#x1ed6;" horiz-adv-x="550" 
d="M275 -10q-70 0 -121.5 33.5t-80 112.5t-28.5 214t28.5 213.5t80 112.5t121.5 34t121.5 -34t80 -112.5t28.5 -213.5t-28.5 -214t-80 -112.5t-121.5 -33.5zM275 60q21 0 40.5 13.5t35 45.5t25 88.5t9.5 142.5t-9.5 142.5t-25 88.5t-35 45.5t-40.5 13.5t-40.5 -13.5
t-35 -45.5t-25 -88.5t-9.5 -142.5t9.5 -142.5t25 -88.5t35 -45.5t40.5 -13.5zM142 750l80 130h105l80 -130h-77l-56 70l-56 -70h-76zM325 912q-17 0 -29.5 7.5t-23 17.5t-19.5 17.5t-18 7.5q-25 0 -25 -40h-60q0 68 20.5 94t54.5 26q17 0 29.5 -7.5t23 -17.5t19.5 -17.5
t18 -7.5q25 0 25 40h60q0 -67 -20.5 -93.5t-54.5 -26.5z" />
    <glyph glyph-name="uni1ED7" unicode="&#x1ed7;" horiz-adv-x="480" 
d="M240 -10q-65 0 -109.5 25.5t-67.5 82.5t-23 152t23 152t67.5 82.5t109.5 25.5t109.5 -25.5t67.5 -82.5t23 -152t-23 -152t-67.5 -82.5t-109.5 -25.5zM240 55q23 0 41 16.5t28.5 59t10.5 119.5q0 78 -10.5 120t-28.5 58.5t-41 16.5q-22 0 -40.5 -16.5t-29 -58.5
t-10.5 -120q0 -77 10.5 -119.5t29 -59t40.5 -16.5zM107 550l80 130h105l80 -130h-77l-56 70l-56 -70h-76zM290 712q-17 0 -29.5 7.5t-23 17.5t-19.5 17.5t-18 7.5q-25 0 -25 -40h-60q0 68 20.5 94t54.5 26q17 0 29.5 -7.5t23 -17.5t19.5 -17.5t18 -7.5q25 0 25 40h60
q0 -67 -20.5 -93.5t-54.5 -26.5z" />
    <glyph glyph-name="uni1ED8" unicode="&#x1ed8;" horiz-adv-x="550" 
d="M275 -10q-70 0 -121.5 33.5t-80 112.5t-28.5 214t28.5 213.5t80 112.5t121.5 34t121.5 -34t80 -112.5t28.5 -213.5t-28.5 -214t-80 -112.5t-121.5 -33.5zM275 60q21 0 40.5 13.5t35 45.5t25 88.5t9.5 142.5t-9.5 142.5t-25 88.5t-35 45.5t-40.5 13.5t-40.5 -13.5
t-35 -45.5t-25 -88.5t-9.5 -142.5t9.5 -142.5t25 -88.5t35 -45.5t40.5 -13.5zM226 -151v99h99v-99h-99zM142 750l80 130h105l80 -130h-77l-56 70l-56 -70h-76z" />
    <glyph glyph-name="uni1ED9" unicode="&#x1ed9;" horiz-adv-x="480" 
d="M240 -10q-65 0 -109.5 25.5t-67.5 82.5t-23 152t23 152t67.5 82.5t109.5 25.5t109.5 -25.5t67.5 -82.5t23 -152t-23 -152t-67.5 -82.5t-109.5 -25.5zM240 55q23 0 41 16.5t28.5 59t10.5 119.5q0 78 -10.5 120t-28.5 58.5t-41 16.5q-22 0 -40.5 -16.5t-29 -58.5
t-10.5 -120q0 -77 10.5 -119.5t29 -59t40.5 -16.5zM191 -151v99h99v-99h-99zM107 550l80 130h105l80 -130h-77l-56 70l-56 -70h-76z" />
    <glyph glyph-name="uni1EDA" unicode="&#x1eda;" horiz-adv-x="550" 
d="M275 -10q-70 0 -121.5 33.5t-80 112.5t-28.5 214t28.5 213.5t80 112.5t121.5 34t121.5 -34t80 -112.5t28.5 -213.5t-28.5 -214t-80 -112.5t-121.5 -33.5zM275 60q21 0 40.5 13.5t35 45.5t25 88.5t9.5 142.5t-9.5 142.5t-25 88.5t-35 45.5t-40.5 13.5t-40.5 -13.5
t-35 -45.5t-25 -88.5t-9.5 -142.5t9.5 -142.5t25 -88.5t35 -45.5t40.5 -13.5zM338 635v65q35 0 57 15.5t22 58.5h100q0 -49 -28.5 -80t-69.5 -45t-81 -14zM242 760l35 130h115l-75 -130h-75z" />
    <glyph glyph-name="uni1EDB" unicode="&#x1edb;" horiz-adv-x="480" 
d="M240 -10q-65 0 -109.5 25.5t-67.5 82.5t-23 152t23 152t67.5 82.5t109.5 25.5t109.5 -25.5t67.5 -82.5t23 -152t-23 -152t-67.5 -82.5t-109.5 -25.5zM240 55q23 0 41 16.5t28.5 59t10.5 119.5q0 78 -10.5 120t-28.5 58.5t-41 16.5q-22 0 -40.5 -16.5t-29 -58.5
t-10.5 -120q0 -77 10.5 -119.5t29 -59t40.5 -16.5zM297 435v65q35 0 57 15.5t22 58.5h100q0 -49 -28.5 -80t-69.5 -45t-81 -14zM207 560l35 130h115l-75 -130h-75z" />
    <glyph glyph-name="uni1EDC" unicode="&#x1edc;" horiz-adv-x="550" 
d="M275 -10q-70 0 -121.5 33.5t-80 112.5t-28.5 214t28.5 213.5t80 112.5t121.5 34t121.5 -34t80 -112.5t28.5 -213.5t-28.5 -214t-80 -112.5t-121.5 -33.5zM275 60q21 0 40.5 13.5t35 45.5t25 88.5t9.5 142.5t-9.5 142.5t-25 88.5t-35 45.5t-40.5 13.5t-40.5 -13.5
t-35 -45.5t-25 -88.5t-9.5 -142.5t9.5 -142.5t25 -88.5t35 -45.5t40.5 -13.5zM338 635v65q35 0 57 15.5t22 58.5h100q0 -49 -28.5 -80t-69.5 -45t-81 -14zM230 760l-75 130h115l35 -130h-75z" />
    <glyph glyph-name="uni1EDD" unicode="&#x1edd;" horiz-adv-x="480" 
d="M240 -10q-65 0 -109.5 25.5t-67.5 82.5t-23 152t23 152t67.5 82.5t109.5 25.5t109.5 -25.5t67.5 -82.5t23 -152t-23 -152t-67.5 -82.5t-109.5 -25.5zM240 55q23 0 41 16.5t28.5 59t10.5 119.5q0 78 -10.5 120t-28.5 58.5t-41 16.5q-22 0 -40.5 -16.5t-29 -58.5
t-10.5 -120q0 -77 10.5 -119.5t29 -59t40.5 -16.5zM297 435v65q35 0 57 15.5t22 58.5h100q0 -49 -28.5 -80t-69.5 -45t-81 -14zM195 560l-75 130h115l35 -130h-75z" />
    <glyph glyph-name="uni1EDE" unicode="&#x1ede;" horiz-adv-x="550" 
d="M275 -10q-70 0 -121.5 33.5t-80 112.5t-28.5 214t28.5 213.5t80 112.5t121.5 34t121.5 -34t80 -112.5t28.5 -213.5t-28.5 -214t-80 -112.5t-121.5 -33.5zM275 60q21 0 40.5 13.5t35 45.5t25 88.5t9.5 142.5t-9.5 142.5t-25 88.5t-35 45.5t-40.5 13.5t-40.5 -13.5
t-35 -45.5t-25 -88.5t-9.5 -142.5t9.5 -142.5t25 -88.5t35 -45.5t40.5 -13.5zM338 635v65q35 0 57 15.5t22 58.5h100q0 -49 -28.5 -80t-69.5 -45t-81 -14zM236 743q0 21 11 35t22 25.5t11 24.5q0 37 -42 37h-50v63q8 3 24 5.5t33 2.5q36 0 62 -6.5t40.5 -28.5t14.5 -69
q0 -18 -14.5 -32.5t-29.5 -27.5t-15 -29h-67z" />
    <glyph glyph-name="uni1EDF" unicode="&#x1edf;" horiz-adv-x="480" 
d="M240 -10q-65 0 -109.5 25.5t-67.5 82.5t-23 152t23 152t67.5 82.5t109.5 25.5t109.5 -25.5t67.5 -82.5t23 -152t-23 -152t-67.5 -82.5t-109.5 -25.5zM240 55q23 0 41 16.5t28.5 59t10.5 119.5q0 78 -10.5 120t-28.5 58.5t-41 16.5q-22 0 -40.5 -16.5t-29 -58.5
t-10.5 -120q0 -77 10.5 -119.5t29 -59t40.5 -16.5zM297 435v65q35 0 57 15.5t22 58.5h100q0 -49 -28.5 -80t-69.5 -45t-81 -14zM201 543q0 21 11 35t22 25.5t11 24.5q0 37 -42 37h-50v63q8 3 24 5.5t33 2.5q36 0 62 -6.5t40.5 -28.5t14.5 -69q0 -18 -14.5 -32.5t-29.5 -27.5
t-15 -29h-67z" />
    <glyph glyph-name="uni1EE0" unicode="&#x1ee0;" horiz-adv-x="550" 
d="M275 -10q-70 0 -121.5 33.5t-80 112.5t-28.5 214t28.5 213.5t80 112.5t121.5 34t121.5 -34t80 -112.5t28.5 -213.5t-28.5 -214t-80 -112.5t-121.5 -33.5zM275 60q21 0 40.5 13.5t35 45.5t25 88.5t9.5 142.5t-9.5 142.5t-25 88.5t-35 45.5t-40.5 13.5t-40.5 -13.5
t-35 -45.5t-25 -88.5t-9.5 -142.5t9.5 -142.5t25 -88.5t35 -45.5t40.5 -13.5zM338 635v65q35 0 57 15.5t22 58.5h100q0 -49 -28.5 -80t-69.5 -45t-81 -14zM325 760q-17 0 -29.5 7.5t-23 17.5t-19.5 17.5t-18 7.5q-25 0 -25 -40h-60q0 68 20.5 94t54.5 26q17 0 29.5 -7.5
t23 -17.5t19.5 -17.5t18 -7.5q25 0 25 40h60q0 -67 -20.5 -93.5t-54.5 -26.5z" />
    <glyph glyph-name="uni1EE1" unicode="&#x1ee1;" horiz-adv-x="480" 
d="M240 -10q-65 0 -109.5 25.5t-67.5 82.5t-23 152t23 152t67.5 82.5t109.5 25.5t109.5 -25.5t67.5 -82.5t23 -152t-23 -152t-67.5 -82.5t-109.5 -25.5zM240 55q23 0 41 16.5t28.5 59t10.5 119.5q0 78 -10.5 120t-28.5 58.5t-41 16.5q-22 0 -40.5 -16.5t-29 -58.5
t-10.5 -120q0 -77 10.5 -119.5t29 -59t40.5 -16.5zM297 435v65q35 0 57 15.5t22 58.5h100q0 -49 -28.5 -80t-69.5 -45t-81 -14zM290 560q-17 0 -29.5 7.5t-23 17.5t-19.5 17.5t-18 7.5q-25 0 -25 -40h-60q0 68 20.5 94t54.5 26q17 0 29.5 -7.5t23 -17.5t19.5 -17.5t18 -7.5
q25 0 25 40h60q0 -67 -20.5 -93.5t-54.5 -26.5z" />
    <glyph glyph-name="uni1EE2" unicode="&#x1ee2;" horiz-adv-x="550" 
d="M275 -10q-70 0 -121.5 33.5t-80 112.5t-28.5 214t28.5 213.5t80 112.5t121.5 34t121.5 -34t80 -112.5t28.5 -213.5t-28.5 -214t-80 -112.5t-121.5 -33.5zM275 60q21 0 40.5 13.5t35 45.5t25 88.5t9.5 142.5t-9.5 142.5t-25 88.5t-35 45.5t-40.5 13.5t-40.5 -13.5
t-35 -45.5t-25 -88.5t-9.5 -142.5t9.5 -142.5t25 -88.5t35 -45.5t40.5 -13.5zM338 635v65q35 0 57 15.5t22 58.5h100q0 -49 -28.5 -80t-69.5 -45t-81 -14zM226 -151v99h99v-99h-99z" />
    <glyph glyph-name="uni1EE3" unicode="&#x1ee3;" horiz-adv-x="480" 
d="M240 -10q-65 0 -109.5 25.5t-67.5 82.5t-23 152t23 152t67.5 82.5t109.5 25.5t109.5 -25.5t67.5 -82.5t23 -152t-23 -152t-67.5 -82.5t-109.5 -25.5zM240 55q23 0 41 16.5t28.5 59t10.5 119.5q0 78 -10.5 120t-28.5 58.5t-41 16.5q-22 0 -40.5 -16.5t-29 -58.5
t-10.5 -120q0 -77 10.5 -119.5t29 -59t40.5 -16.5zM297 435v65q35 0 57 15.5t22 58.5h100q0 -49 -28.5 -80t-69.5 -45t-81 -14zM191 -151v99h99v-99h-99z" />
    <glyph glyph-name="uni1EE4" unicode="&#x1ee4;" horiz-adv-x="550" 
d="M275 -10q-72 0 -120 25t-71.5 80t-23.5 145v460h120v-460q0 -70 12.5 -109t34 -55t48.5 -16q28 0 49 16t33.5 55t12.5 109v460h120v-460q0 -90 -23.5 -145t-71 -80t-120.5 -25zM226 -151v99h99v-99h-99z" />
    <glyph glyph-name="uni1EE5" unicode="&#x1ee5;" horiz-adv-x="505" 
d="M220 -10q-42 0 -77.5 13t-56.5 47.5t-21 99.5v350h120v-350q0 -52 25 -71t55 -19q19 0 33.5 6.5t21.5 13.5v420h120v-500h-85l-15 30h-5q-16 -15 -43 -27.5t-72 -12.5zM204 -151v99h99v-99h-99z" />
    <glyph glyph-name="uni1EE6" unicode="&#x1ee6;" horiz-adv-x="550" 
d="M275 -10q-72 0 -120 25t-71.5 80t-23.5 145v460h120v-460q0 -70 12.5 -109t34 -55t48.5 -16q28 0 49 16t33.5 55t12.5 109v460h120v-460q0 -90 -23.5 -145t-71 -80t-120.5 -25zM236 743q0 21 11 35t22 25.5t11 24.5q0 37 -42 37h-50v63q8 3 24 5.5t33 2.5q36 0 62 -6.5
t40.5 -28.5t14.5 -69q0 -18 -14.5 -32.5t-29.5 -27.5t-15 -29h-67z" />
    <glyph glyph-name="uni1EE7" unicode="&#x1ee7;" horiz-adv-x="505" 
d="M220 -10q-42 0 -77.5 13t-56.5 47.5t-21 99.5v350h120v-350q0 -52 25 -71t55 -19q19 0 33.5 6.5t21.5 13.5v420h120v-500h-85l-15 30h-5q-16 -15 -43 -27.5t-72 -12.5zM214 543q0 21 11 35t22 25.5t11 24.5q0 37 -42 37h-50v63q8 3 24 5.5t33 2.5q36 0 62 -6.5
t40.5 -28.5t14.5 -69q0 -18 -14.5 -32.5t-29.5 -27.5t-15 -29h-67z" />
    <glyph glyph-name="uni1EE8" unicode="&#x1ee8;" horiz-adv-x="550" 
d="M275 -10q-72 0 -120 25t-71.5 80t-23.5 145v460h120v-460q0 -70 12.5 -109t34 -55t48.5 -16q28 0 49 16t33.5 55t12.5 109v460h120v-460q0 -90 -23.5 -145t-71 -80t-120.5 -25zM425 635v65q35 0 57 15.5t22 58.5h100q0 -49 -28.5 -80t-69.5 -45t-81 -14zM242 760l35 130
h115l-75 -130h-75z" />
    <glyph glyph-name="uni1EE9" unicode="&#x1ee9;" horiz-adv-x="505" 
d="M220 -10q-42 0 -77.5 13t-56.5 47.5t-21 99.5v350h120v-350q0 -52 25 -71t55 -19q19 0 33.5 6.5t21.5 13.5v420h120v-500h-85l-15 30h-5q-16 -15 -43 -27.5t-72 -12.5zM374 435v65q35 0 57 15.5t22 58.5h100q0 -49 -28.5 -80t-69.5 -45t-81 -14zM220 560l35 130h115
l-75 -130h-75z" />
    <glyph glyph-name="uni1EEA" unicode="&#x1eea;" horiz-adv-x="550" 
d="M275 -10q-72 0 -120 25t-71.5 80t-23.5 145v460h120v-460q0 -70 12.5 -109t34 -55t48.5 -16q28 0 49 16t33.5 55t12.5 109v460h120v-460q0 -90 -23.5 -145t-71 -80t-120.5 -25zM425 635v65q35 0 57 15.5t22 58.5h100q0 -49 -28.5 -80t-69.5 -45t-81 -14zM238 760l-75 130
h115l35 -130h-75z" />
    <glyph glyph-name="uni1EEB" unicode="&#x1eeb;" horiz-adv-x="505" 
d="M220 -10q-42 0 -77.5 13t-56.5 47.5t-21 99.5v350h120v-350q0 -52 25 -71t55 -19q19 0 33.5 6.5t21.5 13.5v420h120v-500h-85l-15 30h-5q-16 -15 -43 -27.5t-72 -12.5zM374 435v65q35 0 57 15.5t22 58.5h100q0 -49 -28.5 -80t-69.5 -45t-81 -14zM208 560l-75 130h115
l35 -130h-75z" />
    <glyph glyph-name="uni1EEC" unicode="&#x1eec;" horiz-adv-x="550" 
d="M275 -10q-72 0 -120 25t-71.5 80t-23.5 145v460h120v-460q0 -70 12.5 -109t34 -55t48.5 -16q28 0 49 16t33.5 55t12.5 109v460h120v-460q0 -90 -23.5 -145t-71 -80t-120.5 -25zM425 635v65q35 0 57 15.5t22 58.5h100q0 -49 -28.5 -80t-69.5 -45t-81 -14zM236 743
q0 21 11 35t22 25.5t11 24.5q0 37 -42 37h-50v63q8 3 24 5.5t33 2.5q36 0 62 -6.5t40.5 -28.5t14.5 -69q0 -18 -14.5 -32.5t-29.5 -27.5t-15 -29h-67z" />
    <glyph glyph-name="uni1EED" unicode="&#x1eed;" horiz-adv-x="505" 
d="M220 -10q-42 0 -77.5 13t-56.5 47.5t-21 99.5v350h120v-350q0 -52 25 -71t55 -19q19 0 33.5 6.5t21.5 13.5v420h120v-500h-85l-15 30h-5q-16 -15 -43 -27.5t-72 -12.5zM374 435v65q35 0 57 15.5t22 58.5h100q0 -49 -28.5 -80t-69.5 -45t-81 -14zM214 543q0 21 11 35
t22 25.5t11 24.5q0 37 -42 37h-50v63q8 3 24 5.5t33 2.5q36 0 62 -6.5t40.5 -28.5t14.5 -69q0 -18 -14.5 -32.5t-29.5 -27.5t-15 -29h-67z" />
    <glyph glyph-name="uni1EEE" unicode="&#x1eee;" horiz-adv-x="550" 
d="M275 -10q-72 0 -120 25t-71.5 80t-23.5 145v460h120v-460q0 -70 12.5 -109t34 -55t48.5 -16q28 0 49 16t33.5 55t12.5 109v460h120v-460q0 -90 -23.5 -145t-71 -80t-120.5 -25zM425 635v65q35 0 57 15.5t22 58.5h100q0 -49 -28.5 -80t-69.5 -45t-81 -14zM325 760
q-17 0 -29.5 7.5t-23 17.5t-19.5 17.5t-18 7.5q-25 0 -25 -40h-60q0 68 20.5 94t54.5 26q17 0 29.5 -7.5t23 -17.5t19.5 -17.5t18 -7.5q25 0 25 40h60q0 -67 -20.5 -93.5t-54.5 -26.5z" />
    <glyph glyph-name="uni1EEF" unicode="&#x1eef;" horiz-adv-x="505" 
d="M220 -10q-42 0 -77.5 13t-56.5 47.5t-21 99.5v350h120v-350q0 -52 25 -71t55 -19q19 0 33.5 6.5t21.5 13.5v420h120v-500h-85l-15 30h-5q-16 -15 -43 -27.5t-72 -12.5zM374 435v65q35 0 57 15.5t22 58.5h100q0 -49 -28.5 -80t-69.5 -45t-81 -14zM303 560q-17 0 -29.5 7.5
t-23 17.5t-19.5 17.5t-18 7.5q-25 0 -25 -40h-60q0 68 20.5 94t54.5 26q17 0 29.5 -7.5t23 -17.5t19.5 -17.5t18 -7.5q25 0 25 40h60q0 -67 -20.5 -93.5t-54.5 -26.5z" />
    <glyph glyph-name="uni1EF0" unicode="&#x1ef0;" horiz-adv-x="550" 
d="M275 -10q-72 0 -120 25t-71.5 80t-23.5 145v460h120v-460q0 -70 12.5 -109t34 -55t48.5 -16q28 0 49 16t33.5 55t12.5 109v460h120v-460q0 -90 -23.5 -145t-71 -80t-120.5 -25zM425 635v65q35 0 57 15.5t22 58.5h100q0 -49 -28.5 -80t-69.5 -45t-81 -14zM226 -151v99h99
v-99h-99z" />
    <glyph glyph-name="uni1EF1" unicode="&#x1ef1;" horiz-adv-x="505" 
d="M220 -10q-42 0 -77.5 13t-56.5 47.5t-21 99.5v350h120v-350q0 -52 25 -71t55 -19q19 0 33.5 6.5t21.5 13.5v420h120v-500h-85l-15 30h-5q-16 -15 -43 -27.5t-72 -12.5zM374 435v65q35 0 57 15.5t22 58.5h100q0 -49 -28.5 -80t-69.5 -45t-81 -14zM204 -151v99h99v-99h-99z
" />
    <glyph glyph-name="Ygrave" unicode="&#x1ef2;" horiz-adv-x="480" 
d="M180 0v210l-175 490h125l110 -341l110 341h125l-175 -490v-210h-120zM195 760l-75 130h115l35 -130h-75z" />
    <glyph glyph-name="ygrave" unicode="&#x1ef3;" horiz-adv-x="505" 
d="M225 -210q-37 0 -72 6.5t-58 13.5v50h110q56 0 85.5 35t29.5 125q-19 -15 -44.5 -22.5t-55.5 -7.5q-42 0 -77.5 13t-56.5 47.5t-21 99.5v350h120v-350q0 -52 25 -71t55 -19q19 0 33.5 6.5t21.5 13.5v420h120v-460q0 -90 -23.5 -145t-71 -80t-120.5 -25zM208 560l-75 130
h115l35 -130h-75z" />
    <glyph glyph-name="uni1EF4" unicode="&#x1ef4;" horiz-adv-x="480" 
d="M180 0v210l-175 490h125l110 -341l110 341h125l-175 -490v-210h-120zM191 -151v99h99v-99h-99z" />
    <glyph glyph-name="uni1EF5" unicode="&#x1ef5;" horiz-adv-x="505" 
d="M225 -210q-37 0 -72 6.5t-58 13.5v50h110q56 0 85.5 35t29.5 125q-19 -15 -44.5 -22.5t-55.5 -7.5q-42 0 -77.5 13t-56.5 47.5t-21 99.5v350h120v-350q0 -52 25 -71t55 -19q19 0 33.5 6.5t21.5 13.5v420h120v-460q0 -90 -23.5 -145t-71 -80t-120.5 -25zM467 -151v99h99
v-99h-99z" />
    <glyph glyph-name="uni1EF6" unicode="&#x1ef6;" horiz-adv-x="480" 
d="M180 0v210l-175 490h125l110 -341l110 341h125l-175 -490v-210h-120zM201 743q0 21 11 35t22 25.5t11 24.5q0 37 -42 37h-50v63q8 3 24 5.5t33 2.5q36 0 62 -6.5t40.5 -28.5t14.5 -69q0 -18 -14.5 -32.5t-29.5 -27.5t-15 -29h-67z" />
    <glyph glyph-name="uni1EF7" unicode="&#x1ef7;" horiz-adv-x="505" 
d="M225 -210q-37 0 -72 6.5t-58 13.5v50h110q56 0 85.5 35t29.5 125q-19 -15 -44.5 -22.5t-55.5 -7.5q-42 0 -77.5 13t-56.5 47.5t-21 99.5v350h120v-350q0 -52 25 -71t55 -19q19 0 33.5 6.5t21.5 13.5v420h120v-460q0 -90 -23.5 -145t-71 -80t-120.5 -25zM214 543
q0 21 11 35t22 25.5t11 24.5q0 37 -42 37h-50v63q8 3 24 5.5t33 2.5q36 0 62 -6.5t40.5 -28.5t14.5 -69q0 -18 -14.5 -32.5t-29.5 -27.5t-15 -29h-67z" />
    <glyph glyph-name="uni1EF8" unicode="&#x1ef8;" horiz-adv-x="480" 
d="M180 0v210l-175 490h125l110 -341l110 341h125l-175 -490v-210h-120zM290 760q-17 0 -29.5 7.5t-23 17.5t-19.5 17.5t-18 7.5q-25 0 -25 -40h-60q0 68 20.5 94t54.5 26q17 0 29.5 -7.5t23 -17.5t19.5 -17.5t18 -7.5q25 0 25 40h60q0 -67 -20.5 -93.5t-54.5 -26.5z" />
    <glyph glyph-name="uni1EF9" unicode="&#x1ef9;" horiz-adv-x="505" 
d="M225 -210q-37 0 -72 6.5t-58 13.5v50h110q56 0 85.5 35t29.5 125q-19 -15 -44.5 -22.5t-55.5 -7.5q-42 0 -77.5 13t-56.5 47.5t-21 99.5v350h120v-350q0 -52 25 -71t55 -19q19 0 33.5 6.5t21.5 13.5v420h120v-460q0 -90 -23.5 -145t-71 -80t-120.5 -25zM303 560
q-17 0 -29.5 7.5t-23 17.5t-19.5 17.5t-18 7.5q-25 0 -25 -40h-60q0 68 20.5 94t54.5 26q17 0 29.5 -7.5t23 -17.5t19.5 -17.5t18 -7.5q25 0 25 40h60q0 -67 -20.5 -93.5t-54.5 -26.5z" />
    <glyph glyph-name="endash" unicode="&#x2013;" horiz-adv-x="480" 
d="M30 240v80h420v-80h-420z" />
    <glyph glyph-name="emdash" unicode="&#x2014;" horiz-adv-x="660" 
d="M30 240v80h600v-80h-600z" />
    <glyph glyph-name="quoteleft" unicode="&#x2018;" horiz-adv-x="195" 
d="M40 475l40 230h80v-230h-120z" />
    <glyph glyph-name="quoteright" unicode="&#x2019;" horiz-adv-x="195" 
d="M40 475v230h120l-40 -230h-80z" />
    <glyph glyph-name="quotesinglbase" unicode="&#x201a;" horiz-adv-x="195" 
d="M40 -120v230h120l-40 -230h-80z" />
    <glyph glyph-name="quotedblleft" unicode="&#x201c;" horiz-adv-x="365" 
d="M205 475l40 230h80v-230h-120zM35 475l40 230h80v-230h-120z" />
    <glyph glyph-name="quotedblright" unicode="&#x201d;" horiz-adv-x="365" 
d="M210 475v230h120l-40 -230h-80zM40 475v230h120l-40 -230h-80z" />
    <glyph glyph-name="quotedblbase" unicode="&#x201e;" horiz-adv-x="365" 
d="M210 -120v230h120l-40 -230h-80zM40 -120v230h120l-40 -230h-80z" />
    <glyph glyph-name="dagger" unicode="&#x2020;" horiz-adv-x="470" 
d="M175 -200v585h-155v80h155v235h120v-235h155v-80h-155v-585h-120z" />
    <glyph glyph-name="daggerdbl" unicode="&#x2021;" horiz-adv-x="470" 
d="M175 -200v235h-155v80h155v270h-155v80h155v235h120v-235h155v-80h-155v-270h155v-80h-155v-235h-120z" />
    <glyph glyph-name="bullet" unicode="&#x2022;" horiz-adv-x="270" 
d="M45 260v179h180v-179h-180z" />
    <glyph glyph-name="ellipsis" unicode="&#x2026;" horiz-adv-x="590" 
d="M430 -10v120h120v-120h-120zM40 -10v120h120v-120h-120zM235 -10v120h120v-120h-120z" />
    <glyph glyph-name="perthousand" unicode="&#x2030;" horiz-adv-x="1050" 
d="M105 0l390 700h120l-390 -700h-120zM540 -10q-71 0 -113 41.5t-42 108.5q0 68 42 109t113 41t113 -41t42 -109q0 -67 -42 -108.5t-113 -41.5zM540 60q23 0 39 19.5t16 60.5t-16 60.5t-39 19.5q-22 0 -38.5 -19.5t-16.5 -60.5t16.5 -60.5t38.5 -19.5zM180 410
q-71 0 -113 41.5t-42 108.5q0 68 42 109t113 41t113 -41t42 -109q0 -67 -42 -108.5t-113 -41.5zM180 480q23 0 39 19.5t16 60.5t-16 60.5t-39 19.5q-22 0 -38.5 -19.5t-16.5 -60.5t16.5 -60.5t38.5 -19.5zM870 -10q-71 0 -113 41.5t-42 108.5q0 68 42 109t113 41t113 -41
t42 -109q0 -67 -42 -108.5t-113 -41.5zM870 60q23 0 39 19.5t16 60.5t-16 60.5t-39 19.5q-22 0 -38.5 -19.5t-16.5 -60.5t16.5 -60.5t38.5 -19.5z" />
    <glyph glyph-name="guilsinglleft" unicode="&#x2039;" horiz-adv-x="325" 
d="M210 0l-190 250l190 250l85 -55l-145 -192v-6l145 -192z" />
    <glyph glyph-name="guilsinglright" unicode="&#x203a;" horiz-adv-x="325" 
d="M115 0l-85 55l145 192v6l-145 192l85 55l190 -250z" />
    <glyph glyph-name="fraction" unicode="&#x2044;" horiz-adv-x="400" 
d="M-50 0l390 700h110l-390 -700h-110z" />
    <glyph glyph-name="uni2074" unicode="&#x2074;" horiz-adv-x="320" 
d="M160 400v55h-140v60l140 185h85v-185h25v-60h-25v-55h-85zM95 515h65v85z" />
    <glyph glyph-name="Euro" unicode="&#x20ac;" horiz-adv-x="480" 
d="M305 -10q-66 0 -114 22.5t-77 77t-39 150.5h-65l10 75h50v70h-60l10 75h55q10 96 38 150.5t74 77t108 22.5q53 0 95.5 -6t64.5 -14v-55h-120q-34 0 -62.5 -15.5t-48 -53.5t-28.5 -106h199l-15 -75h-190v-70h175l-15 -75h-154q9 -68 29.5 -106t51 -53.5t68.5 -15.5h120
v-55q-22 -7 -64.5 -13.5t-95.5 -6.5z" />
    <glyph glyph-name="uni20AE" unicode="&#x20ae;" horiz-adv-x="450" 
d="M165 0v620h-155v80h430v-80h-155v-620h-120zM50 148v77l350 140v-77zM50 275v77l350 140v-77z" />
    <glyph glyph-name="uni20B4" unicode="&#x20b4;" horiz-adv-x="500" 
d="M280 -10q-127 0 -183.5 44.5t-56.5 125.5q0 63 33 102.5t80 66.5h166q-41 -19 -77.5 -39.5t-59 -48.5t-22.5 -71q0 -51 32.5 -78t107.5 -27h140v-55q-22 -7 -64.5 -13.5t-95.5 -6.5zM-7 284l19 65h472l-19 -65h-472zM22 391l19 65h472l-19 -65h-472zM231 413
q41 22 67.5 52t26.5 75q0 44 -28 69.5t-77 25.5h-140v55q23 8 65.5 14t94.5 6q101 0 153 -43t52 -117q0 -45 -20 -78.5t-52 -58.5h-142z" />
    <glyph glyph-name="uni20B8" unicode="&#x20b8;" horiz-adv-x="450" 
d="M165 0v494h-155v73h430v-73h-155v-494h-120zM10 627v73h430v-73h-430z" />
    <glyph glyph-name="uni20BD" unicode="&#x20bd;" horiz-adv-x="565" 
d="M120 0v690q38 11 78.5 15.5t96.5 4.5q83 0 134.5 -21t76 -67t24.5 -122q0 -80 -23 -128.5t-68.5 -70t-113.5 -21.5q-11 0 -38.5 3t-46.5 7v-290h-120zM30 157v73h345v-73h-345zM30 287v73h210v-73h-210zM240 360h55q56 0 85.5 29t29.5 111q0 78 -29.5 106.5t-85.5 28.5
h-55v-275z" />
    <glyph glyph-name="uni2116" unicode="&#x2116;" horiz-adv-x="885" 
d="M70 0v700h120l190 -460h5v460h115v-700h-120l-190 460h-5v-460h-115zM570 280v80h260v-80h-260zM700 410q-71 0 -113 41.5t-42 108.5q0 68 42 109t113 41t113 -41t42 -109q0 -67 -42 -108.5t-113 -41.5zM700 480q23 0 39 19.5t16 60.5t-16 60.5t-39 19.5
q-22 0 -38.5 -19.5t-16.5 -60.5t16.5 -60.5t38.5 -19.5z" />
    <glyph glyph-name="trademark" unicode="&#x2122;" horiz-adv-x="695" 
d="M285 400l20 300h90l80 -176l80 176h90l20 -300h-85l-10 175l-60 -135h-70l-60 135l-10 -175h-85zM95 400v240h-85v60h255v-60h-85v-240h-85z" />
    <glyph glyph-name="minus" unicode="&#x2212;" horiz-adv-x="450" 
d="M30 260v80h390v-80h-390z" />
    <glyph glyph-name="uni2215" unicode="&#x2215;" horiz-adv-x="420" 
d="M0 0l300 700h120l-300 -700h-120z" />
    <glyph glyph-name="brevecombcy" horiz-adv-x="0" 
d="M250 555q-49 0 -83 20.5t-57 54.5l50 50q15 -15 37.5 -27.5t52.5 -12.5t52.5 12.5t37.5 27.5l50 -50q-22 -34 -56.5 -54.5t-83.5 -20.5z" />
    <glyph glyph-name="brevecombcy.case" horiz-adv-x="0" 
d="M285 755q-49 0 -85.5 21.5t-59.5 58.5l50 50q15 -15 40 -30t55 -15t55 15t40 30l50 -50q-22 -37 -59 -58.5t-86 -21.5z" />
    <glyph glyph-name="descendercy" horiz-adv-x="230" 
d="M105 -145q-15 26 -25.5 63t-14.5 82h-65v75h180v-220h-75z" />
    <glyph glyph-name="verticalbarcy" horiz-adv-x="454" 
d="M200 75v270h54v-270h-54z" />
    <glyph glyph-name="descendercy.case" horiz-adv-x="235" 
d="M110 -150q-15 30 -25.5 67.5t-14.5 82.5h-70v80h185v-230h-75z" />
    <glyph glyph-name="verticalbarcy.case" horiz-adv-x="454" 
d="M200 160v290h54v-290h-54z" />
    </font>
</defs>
</svg>
