<?xml version="1.0" standalone="no"?>
<!DOCTYPE svg PUBLIC "-//W3C//DTD SVG 1.1//EN" "http://www.w3.org/Graphics/SVG/1.1/DTD/svg11.dtd" >
<svg xmlns="http://www.w3.org/2000/svg" xmlns:xlink="http://www.w3.org/1999/xlink" version="1.1">
<metadata>
Created by FontForge 20170731 at Sun Aug 23 17:55:53 2020
 By Aleksey,,,
Copyright 2020 The Cuprum Project Authors (https://github.com/alexeiva/cuprum), with Reserved Font Name "Cuprum".
</metadata>
<defs>
<font id="Cuprum-Regular" horiz-adv-x="450" >
  <font-face 
    font-family="Cuprum"
    font-weight="400"
    font-stretch="normal"
    units-per-em="1000"
    panose-1="0 0 5 0 0 0 0 0 0 0"
    ascent="800"
    descent="-200"
    x-height="500"
    cap-height="700"
    bbox="-70 -210 960 1057"
    underline-thickness="50"
    underline-position="-175"
    unicode-range="U+000D-2215"
  />
<missing-glyph horiz-adv-x="500" 
d="M95 700h310v-700h-310v700zM134 664v-628h232v628h-232z" />
    <glyph glyph-name=".notdef" horiz-adv-x="500" 
d="M95 700h310v-700h-310v700zM134 664v-628h232v628h-232z" />
    <glyph glyph-name=".null" horiz-adv-x="0" 
 />
    <glyph glyph-name="nonmarkingreturn" horiz-adv-x="333" 
 />
    <glyph glyph-name="NULL" horiz-adv-x="0" 
 />
    <glyph glyph-name="NULL" horiz-adv-x="0" 
 />
    <glyph glyph-name="CR" unicode="&#xd;" horiz-adv-x="250" 
 />
    <glyph glyph-name="space" unicode=" " horiz-adv-x="250" 
 />
    <glyph glyph-name="exclam" unicode="!" horiz-adv-x="230" 
d="M73 185l-13 515h110l-17 -515h-80zM68 -5v110h90v-110h-90z" />
    <glyph glyph-name="quotedbl" unicode="&#x22;" horiz-adv-x="330" 
d="M215 465l-25 235h100l-25 -235h-50zM65 465l-25 235h100l-25 -235h-50z" />
    <glyph glyph-name="numbersign" unicode="#" horiz-adv-x="570" 
d="M85 0l30 200h-95v70h105l25 160h-100v70h115l30 200h90l-30 -200h110l30 200h90l-30 -200h95v-70h-110l-25 -160h105v-70h-115l-30 -200h-90l30 200h-110l-30 -200h-90zM210 270h120l25 160h-120z" />
    <glyph glyph-name="dollar" unicode="$" horiz-adv-x="445" 
d="M190 -90v80h-5q-45 0 -86 6.5t-64 13.5v45h155v264q-28 13 -55.5 29t-50 39t-36 57.5t-13.5 85.5q0 81 38 125.5t117 52.5v82h60v-81q38 -1 72 -7t53 -12v-45h-125v-260q29 -13 57 -28.5t51.5 -37.5t37.5 -55.5t14 -83.5q0 -84 -36.5 -129.5t-123.5 -56.5v-84h-60z
M250 66q38 14 54 42t16 72q0 42 -20 67t-50 42v-223zM190 417v219q-65 -22 -65 -106q0 -43 18.5 -69t46.5 -44z" />
    <glyph glyph-name="percent" unicode="%" horiz-adv-x="680" 
d="M100 0l390 700h90l-390 -700h-90zM510 -10q-67 0 -103.5 37.5t-36.5 112.5t36.5 112.5t103.5 37.5q68 0 104 -37.5t36 -112.5t-36 -112.5t-104 -37.5zM510 50q30 0 47.5 20.5t17.5 69.5t-17.5 69.5t-47.5 20.5t-47.5 -20.5t-17.5 -69.5t17.5 -69.5t47.5 -20.5zM170 410
q-67 0 -103.5 37.5t-36.5 112.5t36.5 112.5t103.5 37.5q68 0 104 -37.5t36 -112.5t-36 -112.5t-104 -37.5zM170 470q30 0 47.5 20.5t17.5 69.5t-17.5 69.5t-47.5 20.5t-47.5 -20.5t-17.5 -69.5t17.5 -69.5t47.5 -20.5z" />
    <glyph glyph-name="ampersand" unicode="&#x26;" horiz-adv-x="515" 
d="M195 -10q-75 0 -117.5 46.5t-42.5 143.5q0 45 6.5 86.5t13.5 63.5h70v-150q0 -52 11 -79t27.5 -36.5t31.5 -9.5q20 0 35 8.5t30 31t35 65.5q-54 77 -88.5 132t-53.5 96t-26 74.5t-7 67.5q0 90 44 135t126 45q45 0 86.5 -6t63.5 -14v-45h-130q-45 0 -72.5 -29.5
t-27.5 -85.5q0 -24 3.5 -49t15 -56t36 -72.5t65.5 -97.5l55 135h90l-90 -220l120 -170h-100l-55 80q-17 -30 -36 -50t-46.5 -30t-72.5 -10z" />
    <glyph glyph-name="quotesingle" unicode="'" horiz-adv-x="180" 
d="M65 465l-25 235h100l-25 -235h-50z" />
    <glyph glyph-name="parenleft" unicode="(" horiz-adv-x="246" 
d="M190 -190q-55 90 -85.5 173t-42.5 157.5t-12 139.5t12 139.5t42.5 157.5t85.5 173l56 -30q-49 -105 -72.5 -208.5t-23.5 -231.5q0 -127 23.5 -231t72.5 -209z" />
    <glyph glyph-name="parenright" unicode=")" horiz-adv-x="246" 
d="M56 -190l-56 30q50 105 73 209t23 231q0 128 -23 231.5t-73 208.5l56 30q55 -90 85.5 -173t42.5 -157.5t12 -139.5t-12 -139.5t-42.5 -157.5t-85.5 -173z" />
    <glyph glyph-name="asterisk" unicode="*" horiz-adv-x="430" 
d="M145 325l-65 35l70 130l-130 25l16 70l139 -30v145h80v-145l139 30l16 -70l-130 -25l70 -130l-65 -35l-70 130z" />
    <glyph glyph-name="plus" unicode="+" horiz-adv-x="430" 
d="M175 100v165h-145v70h145v165h80v-165h145v-70h-145v-165h-80z" />
    <glyph glyph-name="comma" unicode="," horiz-adv-x="170" 
d="M40 -115v220h95l-30 -220h-65z" />
    <glyph glyph-name="hyphen" unicode="-" horiz-adv-x="360" 
d="M30 265v70h300v-70h-300z" />
    <glyph glyph-name="period" unicode="." horiz-adv-x="170" 
d="M40 -5v110h90v-110h-90z" />
    <glyph glyph-name="slash" unicode="/" horiz-adv-x="390" 
d="M0 0l300 700h90l-300 -700h-90z" />
    <glyph glyph-name="zero" unicode="0" horiz-adv-x="510" 
d="M255 -10q-62 0 -108.5 31.5t-71.5 110t-25 218.5t25 218.5t71.5 110t108.5 31.5q63 0 109 -31.5t71 -110t25 -218.5t-25 -218.5t-71 -110t-109 -31.5zM255 50q21 0 41 13.5t37 46.5t27 91.5t10 148.5t-10 148.5t-27 91.5t-37 46.5t-41 13.5t-41 -13.5t-37 -46.5
t-27 -91.5t-10 -148.5t10 -148.5t27 -91.5t37 -46.5t41 -13.5z" />
    <glyph glyph-name="one" unicode="1" horiz-adv-x="280" 
d="M120 0v630h-110v50q23 8 64 14t86 6h50v-700h-90z" />
    <glyph glyph-name="two" unicode="2" horiz-adv-x="390" 
d="M10 0v80q75 94 125 156.5t80 106t42.5 80t12.5 77.5q0 79 -28.5 112t-81.5 33h-140v45q23 8 64 14t86 6q98 0 144 -48.5t46 -161.5q0 -49 -15.5 -91.5t-46.5 -89.5t-79 -106.5t-114 -142.5h255v-70h-350z" />
    <glyph glyph-name="three" unicode="3" horiz-adv-x="415" 
d="M165 -10q-45 0 -86 6.5t-64 13.5v45h130q75 0 107.5 32t32.5 103q0 75 -32.5 107.5t-107.5 32.5h-70v70h60q68 0 99 30.5t31 94.5q0 60 -28.5 90t-81.5 30h-130v45q23 8 64 14t86 6q90 0 135 -45.5t45 -139.5q0 -56 -22.5 -93t-67.5 -60v-4q40 -10 64 -37t35 -64t11 -77
q0 -105 -48.5 -152.5t-161.5 -47.5z" />
    <glyph glyph-name="four" unicode="4" horiz-adv-x="470" 
d="M290 0v180h-260v80l250 440h100v-450h60v-70h-60v-180h-90zM115 250h175v305h-4z" />
    <glyph glyph-name="five" unicode="5" horiz-adv-x="445" 
d="M195 -10q-45 0 -86 6.5t-64 13.5v45h130q75 0 107.5 33t32.5 112t-32.5 112t-107.5 33h-115v355h325v-65h-235v-225h45q113 0 161.5 -48.5t48.5 -161.5q0 -112 -48.5 -161t-161.5 -49z" />
    <glyph glyph-name="six" unicode="6" horiz-adv-x="455" 
d="M235 -10q-94 0 -139.5 49t-45.5 161v220q0 158 50.5 224t144.5 66q45 0 86.5 -6t63.5 -14v-45h-130q-37 0 -65.5 -22.5t-44 -76t-15.5 -146.5q23 8 56.5 14t63.5 6q75 0 117.5 -50t42.5 -170q0 -112 -45.5 -161t-139.5 -49zM235 50q41 0 68 34t27 116q0 90 -30.5 125
t-94.5 35h-65v-160q0 -82 27 -116t68 -34z" />
    <glyph glyph-name="seven" unicode="7" horiz-adv-x="410" 
d="M110 0q23 143 68 300.5t112 329.5h-270v70h360v-80q-67 -165 -112 -321t-68 -299h-90z" />
    <glyph glyph-name="eight" unicode="8" horiz-adv-x="480" 
d="M240 -10q-105 0 -152.5 46.5t-47.5 143.5q0 49 17.5 85t45.5 60.5t57 37.5v4q-24 9 -48.5 31t-40.5 56.5t-16 80.5q0 86 45.5 130.5t139.5 44.5t139.5 -44.5t45.5 -130.5q0 -46 -16 -80.5t-40 -56.5t-49 -31v-4q29 -13 56.5 -37.5t45.5 -60.5t18 -85q0 -97 -47.5 -143.5
t-152.5 -46.5zM240 50q53 0 81.5 31.5t28.5 98.5q0 56 -30.5 89.5t-79.5 55.5q-49 -22 -79.5 -55.5t-30.5 -89.5q0 -67 29 -98.5t81 -31.5zM240 405q41 15 68 46.5t27 83.5q0 56 -27 85.5t-68 29.5t-68 -29.5t-27 -85.5q0 -52 27 -83.5t68 -46.5z" />
    <glyph glyph-name="nine" unicode="9" horiz-adv-x="455" 
d="M210 -10q-45 0 -86 6.5t-64 13.5v45h130q38 0 66 22.5t43.5 76.5t15.5 146q-22 -7 -56 -13.5t-64 -6.5q-75 0 -117.5 50t-42.5 170q0 113 45.5 161.5t139.5 48.5t139.5 -48.5t45.5 -161.5v-220q0 -157 -50.5 -223.5t-144.5 -66.5zM250 340h65v160q0 83 -27 116.5
t-68 33.5t-68 -33.5t-27 -116.5q0 -90 30.5 -125t94.5 -35z" />
    <glyph glyph-name="colon" unicode=":" horiz-adv-x="170" 
d="M40 390v110h90v-110h-90zM40 -5v110h90v-110h-90z" />
    <glyph glyph-name="semicolon" unicode=";" horiz-adv-x="165" 
d="M40 -115v220h95l-30 -220h-65zM40 390v110h90v-110h-90z" />
    <glyph glyph-name="less" unicode="&#x3c;" horiz-adv-x="400" 
d="M360 10l-320 200v85l320 200v-95l-230 -144v-7l230 -144v-95z" />
    <glyph glyph-name="equal" unicode="=" horiz-adv-x="430" 
d="M30 350v75h370v-75h-370zM30 175v75h370v-75h-370z" />
    <glyph glyph-name="greater" unicode="&#x3e;" horiz-adv-x="400" 
d="M40 10v95l230 144v7l-230 144v95l320 -200v-85z" />
    <glyph glyph-name="question" unicode="?" horiz-adv-x="370" 
d="M105 185q0 53 14.5 89.5t36 64t43.5 53.5t36.5 56t14.5 72q0 64 -28.5 94.5t-81.5 30.5h-130v45q23 8 64 14t86 6q90 0 135 -46t45 -144q0 -51 -15.5 -86.5t-38.5 -63t-46.5 -53.5t-39 -57t-15.5 -75h-80zM100 -5v110h90v-110h-90z" />
    <glyph glyph-name="at" unicode="@" horiz-adv-x="830" 
d="M430 -90q-187 0 -283.5 99t-96.5 301q0 203 94 301.5t266 98.5q120 0 202.5 -41.5t125 -118.5t42.5 -185q0 -102 -25 -162.5t-85 -86.5t-165 -26l-5 30h-5q-19 -19 -47 -29.5t-58 -10.5q-40 0 -74 21.5t-55 67.5t-21 121q0 95 21.5 149.5t67.5 77.5t121 23q30 0 69 -6
t61 -14v-365q35 0 59.5 17t37.5 62.5t13 130.5q0 139 -72.5 212t-207.5 73q-85 0 -145.5 -33t-92.5 -107.5t-32 -199.5q0 -122 34 -196t102.5 -106.5t173.5 -32.5h130v-45q-22 -7 -63.5 -13.5t-86.5 -6.5zM420 140q19 0 39 6.5t31 13.5v320h-40q-40 0 -66.5 -16t-40 -57.5
t-13.5 -116.5q0 -55 12 -88t32.5 -47.5t45.5 -14.5z" />
    <glyph glyph-name="A" unicode="A" horiz-adv-x="510" 
d="M20 0l170 700h130l170 -700h-90l-45 180h-200l-45 -180h-90zM170 250h170l-83 350h-4z" />
    <glyph glyph-name="B" unicode="B" horiz-adv-x="500" 
d="M230 -10q-45 0 -83.5 4.5t-76.5 15.5v680q38 11 76.5 15.5t83.5 4.5q105 0 152.5 -45.5t47.5 -139.5q0 -45 -17.5 -84t-62.5 -64v-4q60 -17 85 -66t25 -117q0 -105 -51 -152.5t-179 -47.5zM160 55h70q75 0 107.5 31.5t32.5 103.5q0 79 -32.5 112t-107.5 33h-70v-280z
M160 400h60q60 0 90 30.5t30 94.5q0 60 -30 90t-90 30h-60v-245z" />
    <glyph glyph-name="C" unicode="C" horiz-adv-x="435" 
d="M270 -10q-70 0 -119 31.5t-75 110t-26 218.5t25.5 218.5t72.5 110t112 31.5q45 0 86.5 -6t63.5 -14v-45h-130q-40 0 -71.5 -25t-50 -88.5t-18.5 -181.5q0 -117 19 -181t52.5 -89t78.5 -25h130v-45q-22 -7 -63.5 -13.5t-86.5 -6.5z" />
    <glyph glyph-name="D" unicode="D" horiz-adv-x="520" 
d="M230 -10q-45 0 -83.5 4.5t-76.5 15.5v680q38 11 76.5 15.5t83.5 4.5q80 0 133.5 -31.5t80 -110t26.5 -218.5t-26.5 -218.5t-80 -110t-133.5 -31.5zM160 55h70q45 0 78.5 25t52.5 89t19 181q0 118 -19 181.5t-52.5 88.5t-78.5 25h-70v-590z" />
    <glyph glyph-name="E" unicode="E" 
d="M70 0v700h340v-70h-250v-230h220v-70h-220v-260h250v-70h-340z" />
    <glyph glyph-name="F" unicode="F" horiz-adv-x="430" 
d="M70 0v700h340v-70h-250v-245h210v-70h-210v-315h-90z" />
    <glyph glyph-name="G" unicode="G" horiz-adv-x="500" 
d="M290 -10q-80 0 -133.5 31.5t-80 110t-26.5 218.5t26 218.5t75 110t119 31.5q45 0 86.5 -6t63.5 -14v-45h-130q-45 0 -78.5 -25t-52.5 -88.5t-19 -181.5q0 -117 19.5 -181t57.5 -89t93 -25h40v325h90v-370q-22 -7 -63.5 -13.5t-86.5 -6.5z" />
    <glyph glyph-name="H" unicode="H" horiz-adv-x="530" 
d="M70 0v700h90v-310h210v310h90v-700h-90v320h-210v-320h-90z" />
    <glyph glyph-name="I" unicode="I" horiz-adv-x="230" 
d="M70 0v700h90v-700h-90z" />
    <glyph glyph-name="J" unicode="J" horiz-adv-x="350" 
d="M90 -10q-22 0 -46.5 6.5t-43.5 13.5v45h90q35 0 59.5 16t37.5 56.5t13 112.5v460h90v-460q0 -95 -21 -149.5t-65 -77.5t-114 -23z" />
    <glyph glyph-name="K" unicode="K" horiz-adv-x="490" 
d="M70 0v700h90v-340l195 340h105l-205 -345l225 -355h-105l-215 350v-350h-90z" />
    <glyph glyph-name="L" unicode="L" horiz-adv-x="420" 
d="M70 0v700h90v-630h250v-70h-340z" />
    <glyph glyph-name="M" unicode="M" horiz-adv-x="740" 
d="M55 0l40 700h110l163 -480h4l163 480h110l40 -700h-90l-30 520h-5l-145 -430h-90l-145 430h-5l-30 -520h-90z" />
    <glyph glyph-name="N" unicode="N" horiz-adv-x="540" 
d="M70 0v700h100l205 -495h5v495h90v-700h-100l-205 495h-5v-495h-90z" />
    <glyph glyph-name="O" unicode="O" horiz-adv-x="530" 
d="M265 -10q-67 0 -115.5 31.5t-74 110t-25.5 218.5t25.5 218.5t74 110t115.5 31.5q68 0 116 -31.5t73.5 -110t25.5 -218.5t-25.5 -218.5t-73.5 -110t-116 -31.5zM265 50q24 0 46.5 13.5t40.5 46.5t28 91.5t10 148.5t-10 148.5t-28 91.5t-40.5 46.5t-46.5 13.5t-46.5 -13.5
t-40.5 -46.5t-28 -91.5t-10 -148.5t10 -148.5t28 -91.5t40.5 -46.5t46.5 -13.5z" />
    <glyph glyph-name="P" unicode="P" horiz-adv-x="490" 
d="M70 0v690q38 11 76.5 15.5t83.5 4.5q80 0 128.5 -23t70 -77.5t21.5 -149.5q0 -97 -20.5 -153t-62.5 -79t-107 -23q-22 0 -51.5 3t-48.5 7v-215h-90zM160 275h70q45 0 74 16t42.5 56.5t13.5 112.5q0 73 -13.5 113t-42.5 56t-74 16h-70v-370z" />
    <glyph glyph-name="Q" unicode="Q" horiz-adv-x="540" 
d="M265 -10q-67 0 -115.5 31.5t-74 110t-25.5 218.5t25.5 218.5t74 110t115.5 31.5q68 0 116 -31.5t73.5 -110t25.5 -218.5q0 -116 -18 -187.5t-52 -112.5q38 0 68 -6t52 -14v-40h-265zM265 50q24 0 46.5 13.5t40.5 46.5t28 91.5t10 148.5t-10 148.5t-28 91.5t-40.5 46.5
t-46.5 13.5t-46.5 -13.5t-40.5 -46.5t-28 -91.5t-10 -148.5t10 -148.5t28 -91.5t40.5 -46.5t46.5 -13.5z" />
    <glyph glyph-name="R" unicode="R" horiz-adv-x="505" 
d="M70 0v690q38 11 76.5 15.5t83.5 4.5q80 0 128.5 -22.5t70 -75t21.5 -142.5q0 -67 -11.5 -111.5t-33.5 -70t-55 -38.5l120 -250h-100l-110 230h-100v-230h-90zM160 300h70q68 0 99 36.5t31 133.5q0 68 -13.5 106t-42.5 53.5t-74 15.5h-70v-345z" />
    <glyph glyph-name="S" unicode="S" horiz-adv-x="445" 
d="M185 -10q-45 0 -86 6.5t-64 13.5v45h130q86 0 120.5 30.5t34.5 94.5q0 44 -20.5 69.5t-53 42.5t-69 33t-69 39.5t-53 62.5t-20.5 103q0 90 46.5 135t143.5 45q45 0 86.5 -6t63.5 -14v-45h-130q-60 0 -90 -29.5t-30 -85.5q0 -46 20.5 -73.5t53 -45t69 -34t69 -39t53 -60
t20.5 -98.5q0 -97 -50.5 -143.5t-174.5 -46.5z" />
    <glyph glyph-name="T" unicode="T" horiz-adv-x="430" 
d="M170 0v630h-160v70h410v-70h-160v-630h-90z" />
    <glyph glyph-name="U" unicode="U" horiz-adv-x="520" 
d="M260 -10q-70 0 -114 23t-65 77.5t-21 149.5v460h90v-460q0 -75 13 -116t37.5 -57.5t59.5 -16.5t59.5 16.5t37.5 57.5t13 116v460h90v-460q0 -95 -21 -149.5t-65 -77.5t-114 -23z" />
    <glyph glyph-name="V" unicode="V" horiz-adv-x="490" 
d="M180 0l-160 700h90l133 -605h4l133 605h90l-160 -700h-130z" />
    <glyph glyph-name="W" unicode="W" horiz-adv-x="720" 
d="M135 0l-115 700h90l90 -540h5l110 410h90l110 -410h5l90 540h90l-115 -700h-110l-113 420h-4l-113 -420h-110z" />
    <glyph glyph-name="X" unicode="X" horiz-adv-x="460" 
d="M15 0l150 360l-135 340h90l110 -280l110 280h90l-135 -340l150 -360h-90l-125 300l-125 -300h-90z" />
    <glyph glyph-name="Y" unicode="Y" 
d="M180 0v220l-170 480h90l125 -355l125 355h90l-170 -480v-220h-90z" />
    <glyph glyph-name="Z" unicode="Z" horiz-adv-x="405" 
d="M20 0v65l260 565h-255v70h360v-65l-260 -565h255v-70h-360z" />
    <glyph glyph-name="bracketleft" unicode="[" horiz-adv-x="260" 
d="M70 -180v920h190v-60h-100v-800h100v-60h-190z" />
    <glyph glyph-name="backslash" unicode="\" horiz-adv-x="390" 
d="M300 0l-300 700h90l300 -700h-90z" />
    <glyph glyph-name="bracketright" unicode="]" horiz-adv-x="260" 
d="M0 -180v60h100v800h-100v60h190v-920h-190z" />
    <glyph glyph-name="asciicircum" unicode="^" horiz-adv-x="445" 
d="M95 410l-65 40l150 250h85l150 -250l-65 -40l-125 200h-5z" />
    <glyph glyph-name="underscore" unicode="_" horiz-adv-x="300" 
d="M0 -70v70h300v-70h-300z" />
    <glyph glyph-name="grave" unicode="`" horiz-adv-x="170" 
d="M85 560l-63 130h95l28 -130h-60z" />
    <glyph glyph-name="a" unicode="a" 
d="M195 -10q-45 0 -78.5 13t-52.5 47.5t-19 99.5q0 63 19 96.5t52.5 46t78.5 12.5q23 0 50.5 -3t49.5 -7v45q0 68 -28.5 89t-81.5 21h-100v40q23 8 56.5 14t63.5 6q60 0 100 -13.5t60 -50t20 -106.5v-340h-75l-5 30h-5q-19 -19 -47 -29.5t-58 -10.5zM225 50q19 0 39 6.5
t31 13.5v175h-70q-25 0 -45.5 -8t-32.5 -28.5t-12 -58.5q0 -40 12 -61.5t32.5 -30t45.5 -8.5z" />
    <glyph glyph-name="b" unicode="b" horiz-adv-x="470" 
d="M230 -10q-45 0 -83.5 7.5t-76.5 22.5v680h90v-215q23 11 46.5 18t53.5 7q53 0 89.5 -23.5t56 -80t19.5 -156.5t-20.5 -156.5t-63.5 -80t-111 -23.5zM160 50h70q33 0 56.5 16.5t36 60t12.5 123.5t-12.5 123.5t-36 60t-56.5 16.5q-19 0 -39 -6t-31 -14v-380z" />
    <glyph glyph-name="c" unicode="c" horiz-adv-x="375" 
d="M240 -10q-67 0 -110.5 23.5t-64 80t-20.5 156.5t20 156.5t61.5 80t103.5 23.5q30 0 64 -6t56 -14v-40h-100q-37 0 -63 -16.5t-39 -60t-13 -123.5t13.5 -123.5t41.5 -60t70 -16.5h100v-40q-22 -7 -56 -13.5t-64 -6.5z" />
    <glyph glyph-name="d" unicode="d" horiz-adv-x="470" 
d="M210 -10q-52 0 -89 23.5t-56.5 80t-19.5 156.5t19.5 156.5t56.5 80t89 23.5q30 0 54 -7t46 -18v215h90v-700h-75l-5 30h-5q-19 -19 -47 -29.5t-58 -10.5zM240 50q19 0 39 6.5t31 13.5v360q-11 8 -31 14t-39 6q-32 0 -56 -16.5t-36.5 -60t-12.5 -123.5t12.5 -123.5
t36.5 -60t56 -16.5z" />
    <glyph glyph-name="e" unicode="e" horiz-adv-x="440" 
d="M255 -10q-75 0 -121 23.5t-67.5 80t-21.5 156.5t20 156.5t59 80t96 23.5q58 0 96.5 -23.5t58.5 -80t20 -156.5v-30h-260q0 -97 32.5 -133.5t107.5 -36.5h100v-40q-22 -7 -56 -13.5t-64 -6.5zM135 280h170q0 68 -12 106t-31 53.5t-42 15.5q-22 0 -41.5 -15.5t-31.5 -53.5
t-12 -106z" />
    <glyph glyph-name="f" unicode="f" horiz-adv-x="320" 
d="M80 0v425h-60v65h60v40q0 70 18.5 106.5t50 50t71.5 13.5q15 0 36 -3t41.5 -7.5t32.5 -9.5v-40h-90q-15 0 -31.5 -8.5t-27.5 -32.5t-11 -69v-40h140v-45q-22 -7 -56 -13.5t-64 -6.5h-20v-425h-90z" />
    <glyph glyph-name="g" unicode="g" horiz-adv-x="465" 
d="M200 -210q-30 0 -63.5 6.5t-56.5 13.5v40h100q68 0 99 35.5t31 129.5q-22 -11 -46 -18t-54 -7q-52 0 -89 23.5t-56.5 80t-19.5 156.5t20.5 156.5t64 80t110.5 23.5q45 0 84 -7.5t76 -22.5v-440q0 -95 -21 -149.5t-65 -77.5t-114 -23zM240 50q19 0 39 6.5t31 13.5v380h-70
q-32 0 -56 -16.5t-36.5 -60t-12.5 -123.5t12.5 -123.5t36.5 -60t56 -16.5z" />
    <glyph glyph-name="h" unicode="h" horiz-adv-x="480" 
d="M70 0v700h90v-215q23 11 49.5 18t60.5 7q43 0 75.5 -12.5t51 -45t18.5 -92.5v-360h-90v360q0 53 -27 71.5t-68 18.5q-19 0 -39 -6t-31 -14v-430h-90z" />
    <glyph glyph-name="i" unicode="i" horiz-adv-x="230" 
d="M70 0v500h90v-500h-90zM70 570v110h90v-110h-90z" />
    <glyph glyph-name="j" unicode="j" horiz-adv-x="240" 
d="M30 -210q-22 0 -46.5 6.5t-43.5 13.5v40h70q15 0 31.5 9t27.5 32.5t11 68.5v540h90v-540q0 -70 -18.5 -106.5t-50 -50t-71.5 -13.5zM80 570v110h90v-110h-90z" />
    <glyph glyph-name="k" unicode="k" horiz-adv-x="435" 
d="M70 0v700h90v-430l145 230h100l-155 -235l175 -265h-100l-165 260v-260h-90z" />
    <glyph glyph-name="l" unicode="l" horiz-adv-x="230" 
d="M70 0v700h90v-700h-90z" />
    <glyph glyph-name="m" unicode="m" horiz-adv-x="690" 
d="M65 0v500h75l5 -30h5q19 19 42.5 29.5t57.5 10.5t63.5 -9.5t48.5 -34.5q25 22 61 33t62 11q40 0 71.5 -12.5t50 -45t18.5 -92.5v-360h-90v360q0 35 -11.5 54.5t-30 27.5t-38.5 8q-22 0 -43 -6t-32 -14q4 -11 7 -29t3 -41v-360h-90v360q0 35 -11.5 54.5t-30 27.5t-38.5 8
q-19 0 -36.5 -6t-28.5 -14v-430h-90z" />
    <glyph glyph-name="n" unicode="n" horiz-adv-x="475" 
d="M65 0v500h75l5 -30h5q19 19 47 29.5t58 10.5q48 0 82.5 -12.5t53.5 -45t19 -92.5v-360h-90v360q0 53 -27 71.5t-68 18.5q-19 0 -39 -6t-31 -14v-430h-90z" />
    <glyph glyph-name="o" unicode="o" horiz-adv-x="460" 
d="M230 -10q-60 0 -101 24.5t-62.5 81.5t-21.5 154q0 98 21.5 154.5t62.5 81t101 24.5t101.5 -24.5t62.5 -81t21 -154.5q0 -97 -21 -154t-62.5 -81.5t-101.5 -24.5zM230 45q25 0 46.5 18t35 62.5t13.5 124.5t-13.5 124.5t-35 62.5t-46.5 18t-46.5 -18t-35 -62.5
t-13.5 -124.5t13.5 -124.5t35 -62.5t46.5 -18z" />
    <glyph glyph-name="p" unicode="p" horiz-adv-x="465" 
d="M65 -200v700h75l5 -30h5q19 19 47 29.5t58 10.5q53 0 89.5 -23.5t56 -80t19.5 -156.5t-19.5 -156.5t-56 -80t-89.5 -23.5q-30 0 -53.5 7t-46.5 18v-215h-90zM225 50q33 0 56.5 16.5t36 60t12.5 123.5t-12.5 123.5t-36 60t-56.5 16.5q-19 0 -39 -6t-31 -14v-360
q11 -7 31 -13.5t39 -6.5z" />
    <glyph glyph-name="q" unicode="q" horiz-adv-x="465" 
d="M310 -200v215q-22 -11 -46 -18t-54 -7q-52 0 -89 23.5t-56.5 80t-19.5 156.5t20.5 156.5t64 80t110.5 23.5q45 0 84 -7.5t76 -22.5v-680h-90zM240 50q19 0 39 6.5t31 13.5v380h-70q-32 0 -56 -16.5t-36.5 -60t-12.5 -123.5t12.5 -123.5t36.5 -60t56 -16.5z" />
    <glyph glyph-name="r" unicode="r" horiz-adv-x="335" 
d="M65 0v500h76l5 -40h5q18 15 48.5 27.5t75.5 12.5h50v-75h-100q-19 0 -37 -4.5t-33 -15.5v-405h-90z" />
    <glyph glyph-name="s" unicode="s" horiz-adv-x="395" 
d="M160 -10q-30 0 -63.5 6.5t-56.5 13.5v40h100q68 0 99 17.5t31 62.5q0 30 -17 48t-43.5 30.5t-57 24t-57 29t-43.5 45.5t-17 73q0 75 45 102.5t135 27.5q30 0 64 -6t56 -14v-40h-100q-52 0 -81 -16t-29 -54q0 -30 17 -48t43.5 -30.5t57 -24t57 -29t43.5 -45.5t17 -73
q0 -55 -21 -85.5t-65 -42.5t-114 -12z" />
    <glyph glyph-name="t" unicode="t" horiz-adv-x="345" 
d="M220 -10q-40 0 -71.5 13.5t-50 50t-18.5 106.5v265h-60v65h60v120h90v-120h140v-45q-22 -7 -56 -13.5t-64 -6.5h-20v-265q0 -45 11 -68.5t27.5 -32.5t31.5 -9h90v-40q-12 -5 -32.5 -9.5t-41.5 -7.5t-36 -3z" />
    <glyph glyph-name="u" unicode="u" horiz-adv-x="475" 
d="M220 -10q-47 0 -82 12.5t-54 45t-19 92.5v360h90v-360q0 -52 27 -71t68 -19q19 0 39 6.5t31 13.5v430h90v-500h-75l-5 30h-5q-19 -19 -47 -29.5t-58 -10.5z" />
    <glyph glyph-name="v" unicode="v" horiz-adv-x="430" 
d="M150 0l-135 500h85l113 -415h4l113 415h85l-135 -500h-130z" />
    <glyph glyph-name="w" unicode="w" horiz-adv-x="610" 
d="M105 0l-90 500h85l69 -380h5l91 280h80l91 -280h5l69 380h85l-90 -500h-110l-88 270h-4l-88 -270h-110z" />
    <glyph glyph-name="x" unicode="x" horiz-adv-x="400" 
d="M15 0l125 255l-121 245h90l91 -185l91 185h90l-121 -245l125 -255h-90l-95 195l-95 -195h-90z" />
    <glyph glyph-name="y" unicode="y" horiz-adv-x="475" 
d="M210 -210q-30 0 -63.5 6.5t-56.5 13.5v40h100q68 0 99 35.5t31 129.5q-22 -11 -46 -18t-54 -7q-47 0 -82 12.5t-54 45t-19 92.5v360h90v-360q0 -52 27 -71t68 -19q19 0 39 6.5t31 13.5v430h90v-460q0 -95 -21 -149.5t-65 -77.5t-114 -23z" />
    <glyph glyph-name="z" unicode="z" horiz-adv-x="370" 
d="M20 0v60l225 375h-215v65h320v-60l-224 -375h219v-65h-325z" />
    <glyph glyph-name="braceleft" unicode="{" horiz-adv-x="290" 
d="M290 -180q-65 0 -107 13.5t-62.5 50t-20.5 106.5v130q0 64 -21 91.5t-59 38.5v60q38 11 59 38.5t21 91.5v130q0 70 20.5 106.5t62.5 50t107 13.5v-60q-45 0 -72.5 -21t-27.5 -89v-110q0 -55 -9.5 -87t-27.5 -52t-43 -39v-4q25 -19 43 -39t27.5 -52t9.5 -87v-110
q0 -45 12.5 -68.5t35 -32.5t52.5 -9v-60z" />
    <glyph glyph-name="bar" unicode="|" horiz-adv-x="230" 
d="M70 -200v900h90v-900h-90z" />
    <glyph glyph-name="braceright" unicode="}" horiz-adv-x="290" 
d="M0 -180v60q30 0 52.5 9t35 32.5t12.5 68.5v110q0 55 9.5 87t27.5 52t43 39v4q-25 19 -43 39t-27.5 52t-9.5 87v110q0 68 -27.5 89t-72.5 21v60q65 0 107 -13.5t62.5 -50t20.5 -106.5v-130q0 -64 21.5 -91.5t58.5 -38.5v-60q-37 -11 -58.5 -38.5t-21.5 -91.5v-130
q0 -70 -20.5 -106.5t-62.5 -50t-107 -13.5z" />
    <glyph glyph-name="asciitilde" unicode="~" 
d="M30 196q0 79 26.5 122t93.5 43q34 0 55.5 -12t36.5 -28t28 -28t30 -12q26 0 38 20.5t12 54.5h70q0 -79 -26 -122t-94 -43q-34 0 -55.5 12t-36.5 28t-28 28t-30 12q-26 0 -38 -20.5t-12 -54.5h-70z" />
    <glyph glyph-name="uni00A0" unicode="&#xa0;" horiz-adv-x="250" 
 />
    <glyph glyph-name="exclamdown" unicode="&#xa1;" horiz-adv-x="230" 
d="M60 0l13 515h80l17 -515h-110zM68 595v110h90v-110h-90z" />
    <glyph glyph-name="cent" unicode="&#xa2;" horiz-adv-x="375" 
d="M205 -60v52q-55 5 -90.5 31t-52.5 81t-17 146q0 93 17.5 148.5t53 81t89.5 29.5v61h60v-62q23 -3 46 -8t39 -10v-40h-85v-400h95v-40q-18 -6 -43.5 -11.5t-51.5 -7.5v-51h-60zM205 58v385q-34 -13 -52 -56.5t-18 -136.5q0 -91 17 -134.5t53 -57.5z" />
    <glyph glyph-name="sterling" unicode="&#xa3;" horiz-adv-x="415" 
d="M45 0v50q15 10 26 28.5t17.5 50t6.5 81.5v110h-60v70h60v110q0 90 21 135t65 60t114 15q23 0 47 -6t43 -14v-45h-90q-35 0 -59.5 -10t-37.5 -41t-13 -94v-110h150v-70h-150v-86q0 -75 -13.5 -110t-36.5 -50v-4h260v-70h-350z" />
    <glyph glyph-name="currency" unicode="&#xa4;" horiz-adv-x="520" 
d="M80 135l-50 50l70 70q-11 19 -18 44t-7 51t7 51t18 44l-70 70l50 50l70 -65q19 19 49.5 29.5t59.5 10.5q31 0 61.5 -10.5t49.5 -29.5l70 65l50 -50l-70 -70q11 -19 18 -44t7 -51t-7 -51t-18 -44l70 -70l-50 -50l-70 65q-19 -19 -49.5 -29.5t-61.5 -10.5q-29 0 -59.5 10.5
t-49.5 29.5zM260 225q38 0 64 30.5t26 94.5t-26 94.5t-64 30.5q-37 0 -63.5 -30.5t-26.5 -94.5t26.5 -94.5t63.5 -30.5z" />
    <glyph glyph-name="yen" unicode="&#xa5;" 
d="M180 0v205h-120v70h100l-21 60h-79v70h54l-104 295h90l125 -355l125 355h90l-105 -295h55v-70h-80l-21 -60h101v-70h-120v-205h-90z" />
    <glyph glyph-name="brokenbar" unicode="&#xa6;" horiz-adv-x="230" 
d="M70 320v360h90v-360h-90zM70 -200v360h90v-360h-90z" />
    <glyph glyph-name="section" unicode="&#xa7;" horiz-adv-x="435" 
d="M180 -210q-37 0 -74.5 6.5t-60.5 13.5v40h115q79 0 112 27.5t33 72.5q0 35 -19 57.5t-49.5 38.5t-64 31.5t-64 36.5t-49.5 53.5t-19 82.5q0 58 29.5 95.5t68.5 56.5q-36 21 -62 55t-26 93q0 75 47 117.5t148 42.5q38 0 75.5 -6t59.5 -14v-40h-115q-64 0 -94.5 -27.5
t-30.5 -72.5q0 -35 18.5 -57.5t47.5 -38.5t61.5 -31.5t61.5 -36.5t47.5 -53.5t18.5 -82.5q0 -56 -28.5 -93t-66.5 -57q38 -22 66.5 -55.5t28.5 -94.5q0 -75 -49.5 -117.5t-165.5 -42.5zM241 128q28 16 46 44.5t18 77.5q0 34 -15.5 56t-40.5 37.5t-54 28.5
q-28 -15 -46.5 -43.5t-18.5 -78.5q0 -33 15.5 -55t41 -37.5t54.5 -29.5z" />
    <glyph glyph-name="dieresis" unicode="&#xa8;" horiz-adv-x="290" 
d="M180 580v110h90v-110h-90zM20 580v110h90v-110h-90z" />
    <glyph glyph-name="copyright" unicode="&#xa9;" horiz-adv-x="810" 
d="M405 -20q-110 0 -191 44.5t-125 127.5t-44 198t44 198t125 127.5t191 44.5t191 -44.5t125 -127.5t44 -198t-44 -198t-125 -127.5t-191 -44.5zM415 130q-41 0 -73 8t-53.5 31t-32.5 66.5t-11 114.5t11 114.5t32.5 66.5t53.5 31t73 8q34 0 63.5 -6t51.5 -14v-40h-95
q-35 0 -59.5 -11t-37.5 -45t-13 -104t13 -104t37.5 -45t59.5 -11h105v-40q-22 -7 -56.5 -13.5t-68.5 -6.5zM405 40q80 0 141 36t95 105t34 169t-34 169t-95 105t-141 36t-141 -36t-95 -105t-34 -169t34 -169t95 -105t141 -36z" />
    <glyph glyph-name="ordfeminine" unicode="&#xaa;" horiz-adv-x="285" 
d="M115 395q-30 0 -57.5 21.5t-27.5 73.5q0 53 29 74t66 21q13 0 28 -1t26 -2.5l11 -1.5v20q0 30 -15.5 42.5t-49.5 12.5h-70v38q15 5 38 8.5t42 3.5q56 0 88 -20.5t32 -84.5v-200h-60l-5 20q-15 -11 -33.5 -18t-41.5 -7zM145 445q11 0 22.5 4t22.5 11v75h-45q-22 0 -36 -11
t-14 -34q0 -22 14 -33.5t36 -11.5z" />
    <glyph glyph-name="guillemotleft" unicode="&#xab;" horiz-adv-x="435" 
d="M340 45l-155 205l155 205l65 -40l-120 -163v-4l120 -163zM175 45l-155 205l155 205l65 -40l-120 -163v-4l120 -163z" />
    <glyph glyph-name="logicalnot" unicode="&#xac;" horiz-adv-x="420" 
d="M325 240l-8 100h-287v70h360v-170h-65z" />
    <glyph glyph-name="uni00AD" unicode="&#xad;" horiz-adv-x="360" 
d="M30 260v80h300v-80h-300z" />
    <glyph glyph-name="registered" unicode="&#xae;" horiz-adv-x="810" 
d="M405 -20q-110 0 -191 44.5t-125 127.5t-44 198t44 198t125 127.5t191 44.5t191 -44.5t125 -127.5t44 -198t-44 -198t-125 -127.5t-191 -44.5zM405 40q80 0 141 36t95 105t34 169t-34 169t-95 105t-141 36t-141 -36t-95 -105t-34 -169t34 -169t95 -105t141 -36zM265 140
v410q26 8 58 14t77 6q75 0 117.5 -28.5t42.5 -111.5q0 -40 -11.5 -63.5t-27.5 -36t-31 -20.5l80 -170h-85l-70 150h-70v-150h-80zM345 350h55q30 0 55 17.5t25 62.5t-25 62.5t-55 17.5h-55v-160z" />
    <glyph glyph-name="macron" unicode="&#xaf;" horiz-adv-x="270" 
d="M20 640v60h230v-60h-230z" />
    <glyph glyph-name="degree" unicode="&#xb0;" horiz-adv-x="380" 
d="M190 390q-67 0 -108.5 42.5t-41.5 117.5t41.5 117.5t108.5 42.5q68 0 109 -42.5t41 -117.5t-41 -117.5t-109 -42.5zM190 450q30 0 50 24t20 76q0 53 -20 76.5t-50 23.5t-50 -23.5t-20 -76.5q0 -52 20 -76t50 -24z" />
    <glyph glyph-name="plusminus" unicode="&#xb1;" horiz-adv-x="430" 
d="M175 150v155h-145v70h145v155h80v-155h145v-70h-145v-155h-80zM30 50v70h370v-70h-370z" />
    <glyph glyph-name="uni00B2" unicode="&#xb2;" horiz-adv-x="255" 
d="M30 400v55q53 41 91.5 79.5t38.5 75.5q0 19 -14.5 32t-40.5 13h-65v39q15 5 36.5 8t43.5 3q53 0 79 -25t26 -70q0 -41 -30 -78t-90 -82h120v-50h-195z" />
    <glyph glyph-name="uni00B3" unicode="&#xb3;" horiz-adv-x="255" 
d="M105 395q-22 0 -41 3.5t-34 7.5v39h75q26 0 40.5 10.5t14.5 29.5q0 23 -13.5 34t-36.5 11h-45v50h40q26 0 35.5 12.5t9.5 27.5t-12 25t-39 10h-69v39q14 5 36 8t44 3q49 0 77 -18t28 -67q0 -22 -14.5 -39t-26.5 -21q20 -4 35.5 -22.5t15.5 -52.5q0 -52 -32 -71t-88 -19z
" />
    <glyph glyph-name="acute" unicode="&#xb4;" horiz-adv-x="170" 
d="M20 560l35 130h95l-70 -130h-60z" />
    <glyph glyph-name="uni00B5" unicode="&#xb5;" horiz-adv-x="475" 
d="M65 -200v700h90v-340q0 -52 27 -81t68 -29q19 0 39 6.5t31 13.5v430h90v-500h-75l-5 30h-5q-19 -19 -42 -29.5t-53 -10.5q-32 0 -52.5 14t-22.5 16v-220h-90z" />
    <glyph glyph-name="paragraph" unicode="&#xb6;" horiz-adv-x="530" 
d="M210 -200v530q-82 0 -131 49.5t-49 135.5q0 48 22 90t62.5 68.5t95.5 26.5h300v-70h-70v-830h-80v830h-70v-830h-80z" />
    <glyph glyph-name="periodcentered" unicode="&#xb7;" horiz-adv-x="250" 
d="M80 295v110h90v-110h-90z" />
    <glyph glyph-name="cedilla" unicode="&#xb8;" horiz-adv-x="200" 
d="M95 -165q-34 0 -54.5 7.5l-20.5 7.5v30h65q15 0 22.5 7t7.5 18t-7.5 18t-22.5 7h-55v85h50v-40h15q41 0 63 -20t22 -50t-22 -50t-63 -20z" />
    <glyph glyph-name="uni00B9" unicode="&#xb9;" horiz-adv-x="185" 
d="M90 400v250h-60v38q15 5 42 8.5t53 3.5h30v-300h-65z" />
    <glyph glyph-name="ordmasculine" unicode="&#xba;" horiz-adv-x="300" 
d="M150 395q-52 0 -86 38t-34 117t34 117t86 38q53 0 86.5 -38t33.5 -117t-33.5 -117t-86.5 -38zM150 445q23 0 39 22.5t16 82.5t-16 82.5t-39 22.5q-22 0 -38.5 -22.5t-16.5 -82.5t16.5 -82.5t38.5 -22.5z" />
    <glyph glyph-name="guillemotright" unicode="&#xbb;" horiz-adv-x="435" 
d="M260 45l-65 40l120 163v4l-120 163l65 40l155 -205zM95 45l-65 40l120 163v4l-120 163l65 40l155 -205z" />
    <glyph glyph-name="onequarter" unicode="&#xbc;" horiz-adv-x="560" 
d="M40 0l390 700h80l-390 -700h-80zM410 0v65h-145v50l140 185h70v-185h30v-50h-30v-65h-65zM335 115h75v98zM105 400v250h-60v38q15 5 42 8.5t53 3.5h35v-300h-70z" />
    <glyph glyph-name="onehalf" unicode="&#xbd;" horiz-adv-x="590" 
d="M50 0l390 700h80l-390 -700h-80zM335 0v55q53 41 91.5 79.5t38.5 75.5q0 19 -14.5 32t-40.5 13h-65v39q15 5 36.5 8t43.5 3q53 0 79 -25t26 -70q0 -41 -30 -78t-90 -82h120v-50h-195zM115 400v250h-60v38q15 5 42 8.5t53 3.5h35v-300h-70z" />
    <glyph glyph-name="threequarters" unicode="&#xbe;" horiz-adv-x="565" 
d="M45 0l390 700h80l-390 -700h-80zM415 0v65h-145v50l140 185h70v-185h30v-50h-30v-65h-65zM340 115h75v98zM115 395q-22 0 -41 3.5t-34 7.5v39h75q26 0 40.5 10.5t14.5 29.5q0 23 -13.5 34t-36.5 11h-45v50h40q26 0 35.5 12.5t9.5 27.5t-12 25t-39 10h-69v39q14 5 36 8
t44 3q49 0 77 -18t28 -67q0 -22 -14.5 -39t-26.5 -21q20 -4 35.5 -22.5t15.5 -52.5q0 -52 -32 -71t-88 -19z" />
    <glyph glyph-name="questiondown" unicode="&#xbf;" horiz-adv-x="370" 
d="M210 -10q-90 0 -135 46.5t-45 143.5q0 51 15.5 86.5t39 63t46.5 53.5t38.5 57.5t15.5 74.5h80q0 -52 -14.5 -89t-36 -64.5t-43.5 -53.5t-36.5 -56t-14.5 -72q0 -64 29 -94.5t81 -30.5h130v-45q-22 -7 -63.5 -13.5t-86.5 -6.5zM180 595v110h90v-110h-90z" />
    <glyph glyph-name="Agrave" unicode="&#xc0;" horiz-adv-x="510" 
d="M20 0l170 700h130l170 -700h-90l-45 180h-200l-45 -180h-90zM170 250h170l-83 350h-4zM218 760l-63 130h95l28 -130h-60z" />
    <glyph glyph-name="Aacute" unicode="&#xc1;" horiz-adv-x="510" 
d="M20 0l170 700h130l170 -700h-90l-45 180h-200l-45 -180h-90zM170 250h170l-83 350h-4zM225 760l35 130h95l-70 -130h-60z" />
    <glyph glyph-name="Acircumflex" unicode="&#xc2;" horiz-adv-x="510" 
d="M20 0l170 700h130l170 -700h-90l-45 180h-200l-45 -180h-90zM170 250h170l-83 350h-4zM132 750l75 130h95l75 -130h-60l-63 74l-62 -74h-60z" />
    <glyph glyph-name="Atilde" unicode="&#xc3;" horiz-adv-x="510" 
d="M20 0l170 700h130l170 -700h-90l-45 180h-200l-45 -180h-90zM170 250h170l-83 350h-4zM295 765q-19 0 -31 9t-20.5 21t-16.5 21t-17 9q-25 0 -25 -45h-50q0 56 19.5 80.5t60.5 24.5q19 0 31 -9t20.5 -21t16.5 -21t17 -9q25 0 25 45h50q0 -56 -19.5 -80.5t-60.5 -24.5z
" />
    <glyph glyph-name="Adieresis" unicode="&#xc4;" horiz-adv-x="510" 
d="M20 0l170 700h130l170 -700h-90l-45 180h-200l-45 -180h-90zM170 250h170l-83 350h-4zM290 780v110h90v-110h-90zM130 780v110h90v-110h-90z" />
    <glyph glyph-name="Aring" unicode="&#xc5;" horiz-adv-x="510" 
d="M20 0l170 700h130l170 -700h-90l-45 180h-200l-45 -180h-90zM170 250h170l-83 350h-4zM255 740q-37 0 -61 21.5t-24 58.5q0 38 24 59t61 21q38 0 61.5 -21t23.5 -59q0 -37 -23.5 -58.5t-61.5 -21.5zM255 785q15 0 25 8t10 27t-10 27t-25 8t-25 -8t-10 -27t10 -27t25 -8z
" />
    <glyph glyph-name="AE" unicode="&#xc6;" horiz-adv-x="731" 
d="M0 0l240 700h451v-70h-250v-230h220v-70h-220v-260h250v-70h-340v180h-199l-62 -180h-90zM176 250h175v380h-45z" />
    <glyph glyph-name="Ccedilla" unicode="&#xc7;" horiz-adv-x="435" 
d="M270 -10q-70 0 -119 31.5t-75 110t-26 218.5t25.5 218.5t72.5 110t112 31.5q45 0 86.5 -6t63.5 -14v-45h-130q-40 0 -71.5 -25t-50 -88.5t-18.5 -181.5q0 -117 19 -181t52.5 -89t78.5 -25h130v-45q-22 -7 -63.5 -13.5t-86.5 -6.5zM285 -165q-34 0 -54.5 7.5l-20.5 7.5v30
h65q15 0 22.5 7t7.5 18t-7.5 18t-22.5 7h-55v85h50v-40h15q41 0 63 -20t22 -50t-22 -50t-63 -20z" />
    <glyph glyph-name="Egrave" unicode="&#xc8;" 
d="M70 0v700h340v-70h-250v-230h220v-70h-220v-260h250v-70h-340zM188 760l-63 130h95l28 -130h-60z" />
    <glyph glyph-name="Eacute" unicode="&#xc9;" 
d="M70 0v700h340v-70h-250v-230h220v-70h-220v-260h250v-70h-340zM195 760l35 130h95l-70 -130h-60z" />
    <glyph glyph-name="Ecircumflex" unicode="&#xca;" 
d="M70 0v700h340v-70h-250v-230h220v-70h-220v-260h250v-70h-340zM102 750l75 130h95l75 -130h-60l-63 74l-62 -74h-60z" />
    <glyph glyph-name="Edieresis" unicode="&#xcb;" 
d="M70 0v700h340v-70h-250v-230h220v-70h-220v-260h250v-70h-340zM260 780v110h90v-110h-90zM100 780v110h90v-110h-90z" />
    <glyph glyph-name="Igrave" unicode="&#xcc;" horiz-adv-x="230" 
d="M70 0v700h90v-700h-90zM78 760l-63 130h95l28 -130h-60z" />
    <glyph glyph-name="Iacute" unicode="&#xcd;" horiz-adv-x="230" 
d="M70 0v700h90v-700h-90zM85 760l35 130h95l-70 -130h-60z" />
    <glyph glyph-name="Icircumflex" unicode="&#xce;" horiz-adv-x="230" 
d="M70 0v700h90v-700h-90zM-10 750l75 130h95l75 -130h-60l-63 74l-62 -74h-60z" />
    <glyph glyph-name="Idieresis" unicode="&#xcf;" horiz-adv-x="230" 
d="M70 0v700h90v-700h-90zM150 780v110h90v-110h-90zM-10 780v110h90v-110h-90z" />
    <glyph glyph-name="Eth" unicode="&#xd0;" horiz-adv-x="540" 
d="M250 -10q-45 0 -83.5 4.5t-76.5 15.5v310h-80v70h80v300q38 11 76.5 15.5t83.5 4.5q80 0 133.5 -31.5t80 -110t26.5 -218.5t-26.5 -218.5t-80 -110t-133.5 -31.5zM180 55h70q45 0 78.5 25t52.5 89t19 181q0 118 -19 181.5t-52.5 88.5t-78.5 25h-70v-255h110v-70h-110
v-265z" />
    <glyph glyph-name="Ntilde" unicode="&#xd1;" horiz-adv-x="540" 
d="M70 0v700h100l205 -495h5v495h90v-700h-100l-205 495h-5v-495h-90zM315 765q-19 0 -31 9t-20.5 21t-16.5 21t-17 9q-25 0 -25 -45h-50q0 56 19.5 80.5t60.5 24.5q19 0 31 -9t20.5 -21t16.5 -21t17 -9q25 0 25 45h50q0 -56 -19.5 -80.5t-60.5 -24.5z" />
    <glyph glyph-name="Ograve" unicode="&#xd2;" horiz-adv-x="530" 
d="M265 -10q-67 0 -115.5 31.5t-74 110t-25.5 218.5t25.5 218.5t74 110t115.5 31.5q68 0 116 -31.5t73.5 -110t25.5 -218.5t-25.5 -218.5t-73.5 -110t-116 -31.5zM265 50q24 0 46.5 13.5t40.5 46.5t28 91.5t10 148.5t-10 148.5t-28 91.5t-40.5 46.5t-46.5 13.5t-46.5 -13.5
t-40.5 -46.5t-28 -91.5t-10 -148.5t10 -148.5t28 -91.5t40.5 -46.5t46.5 -13.5zM228 760l-63 130h95l28 -130h-60z" />
    <glyph glyph-name="Oacute" unicode="&#xd3;" horiz-adv-x="530" 
d="M265 -10q-67 0 -115.5 31.5t-74 110t-25.5 218.5t25.5 218.5t74 110t115.5 31.5q68 0 116 -31.5t73.5 -110t25.5 -218.5t-25.5 -218.5t-73.5 -110t-116 -31.5zM265 50q24 0 46.5 13.5t40.5 46.5t28 91.5t10 148.5t-10 148.5t-28 91.5t-40.5 46.5t-46.5 13.5t-46.5 -13.5
t-40.5 -46.5t-28 -91.5t-10 -148.5t10 -148.5t28 -91.5t40.5 -46.5t46.5 -13.5zM235 760l35 130h95l-70 -130h-60z" />
    <glyph glyph-name="Ocircumflex" unicode="&#xd4;" horiz-adv-x="530" 
d="M265 -10q-67 0 -115.5 31.5t-74 110t-25.5 218.5t25.5 218.5t74 110t115.5 31.5q68 0 116 -31.5t73.5 -110t25.5 -218.5t-25.5 -218.5t-73.5 -110t-116 -31.5zM265 50q24 0 46.5 13.5t40.5 46.5t28 91.5t10 148.5t-10 148.5t-28 91.5t-40.5 46.5t-46.5 13.5t-46.5 -13.5
t-40.5 -46.5t-28 -91.5t-10 -148.5t10 -148.5t28 -91.5t40.5 -46.5t46.5 -13.5zM142 750l75 130h95l75 -130h-60l-63 74l-62 -74h-60z" />
    <glyph glyph-name="Otilde" unicode="&#xd5;" horiz-adv-x="530" 
d="M265 -10q-67 0 -115.5 31.5t-74 110t-25.5 218.5t25.5 218.5t74 110t115.5 31.5q68 0 116 -31.5t73.5 -110t25.5 -218.5t-25.5 -218.5t-73.5 -110t-116 -31.5zM265 50q24 0 46.5 13.5t40.5 46.5t28 91.5t10 148.5t-10 148.5t-28 91.5t-40.5 46.5t-46.5 13.5t-46.5 -13.5
t-40.5 -46.5t-28 -91.5t-10 -148.5t10 -148.5t28 -91.5t40.5 -46.5t46.5 -13.5zM305 765q-19 0 -31 9t-20.5 21t-16.5 21t-17 9q-25 0 -25 -45h-50q0 56 19.5 80.5t60.5 24.5q19 0 31 -9t20.5 -21t16.5 -21t17 -9q25 0 25 45h50q0 -56 -19.5 -80.5t-60.5 -24.5z" />
    <glyph glyph-name="Odieresis" unicode="&#xd6;" horiz-adv-x="530" 
d="M265 -10q-67 0 -115.5 31.5t-74 110t-25.5 218.5t25.5 218.5t74 110t115.5 31.5q68 0 116 -31.5t73.5 -110t25.5 -218.5t-25.5 -218.5t-73.5 -110t-116 -31.5zM265 50q24 0 46.5 13.5t40.5 46.5t28 91.5t10 148.5t-10 148.5t-28 91.5t-40.5 46.5t-46.5 13.5t-46.5 -13.5
t-40.5 -46.5t-28 -91.5t-10 -148.5t10 -148.5t28 -91.5t40.5 -46.5t46.5 -13.5zM300 780v110h90v-110h-90zM140 780v110h90v-110h-90z" />
    <glyph glyph-name="multiply" unicode="&#xd7;" horiz-adv-x="400" 
d="M95 170l-55 55l105 105l-105 105l55 55l105 -105l105 105l55 -55l-105 -105l105 -105l-55 -55l-105 105z" />
    <glyph glyph-name="Oslash" unicode="&#xd8;" horiz-adv-x="540" 
d="M270 -10q-53 0 -94 18.5t-69 64.5l-37 -53l-40 30l53 76q-13 41 -20.5 96t-7.5 128q0 140 25.5 218.5t74 110t115.5 31.5q53 0 94 -18.5t69 -64.5l37 53l40 -30l-53 -76q14 -40 21 -95.5t7 -128.5q0 -140 -25.5 -218.5t-73.5 -110t-116 -31.5zM270 50q24 0 46.5 13.5
t40.5 46.5t28 91.5t10 148.5q0 37 -2 68t-5 57l-223 -319q17 -61 45.5 -83.5t59.5 -22.5zM152 225l222 318q-17 62 -44.5 84.5t-59.5 22.5q-24 0 -46.5 -13.5t-40.5 -46.5t-28 -91.5t-10 -148.5q0 -37 1.5 -68t5.5 -57z" />
    <glyph glyph-name="Ugrave" unicode="&#xd9;" horiz-adv-x="520" 
d="M260 -10q-70 0 -114 23t-65 77.5t-21 149.5v460h90v-460q0 -75 13 -116t37.5 -57.5t59.5 -16.5t59.5 16.5t37.5 57.5t13 116v460h90v-460q0 -95 -21 -149.5t-65 -77.5t-114 -23zM223 760l-63 130h95l28 -130h-60z" />
    <glyph glyph-name="Uacute" unicode="&#xda;" horiz-adv-x="520" 
d="M260 -10q-70 0 -114 23t-65 77.5t-21 149.5v460h90v-460q0 -75 13 -116t37.5 -57.5t59.5 -16.5t59.5 16.5t37.5 57.5t13 116v460h90v-460q0 -95 -21 -149.5t-65 -77.5t-114 -23zM230 760l35 130h95l-70 -130h-60z" />
    <glyph glyph-name="Ucircumflex" unicode="&#xdb;" horiz-adv-x="520" 
d="M260 -10q-70 0 -114 23t-65 77.5t-21 149.5v460h90v-460q0 -75 13 -116t37.5 -57.5t59.5 -16.5t59.5 16.5t37.5 57.5t13 116v460h90v-460q0 -95 -21 -149.5t-65 -77.5t-114 -23zM137 750l75 130h95l75 -130h-60l-63 74l-62 -74h-60z" />
    <glyph glyph-name="Udieresis" unicode="&#xdc;" horiz-adv-x="520" 
d="M260 -10q-70 0 -114 23t-65 77.5t-21 149.5v460h90v-460q0 -75 13 -116t37.5 -57.5t59.5 -16.5t59.5 16.5t37.5 57.5t13 116v460h90v-460q0 -95 -21 -149.5t-65 -77.5t-114 -23zM295 780v110h90v-110h-90zM135 780v110h90v-110h-90z" />
    <glyph glyph-name="Yacute" unicode="&#xdd;" 
d="M180 0v220l-170 480h90l125 -355l125 355h90l-170 -480v-220h-90zM195 760l35 130h95l-70 -130h-60z" />
    <glyph glyph-name="Thorn" unicode="&#xde;" horiz-adv-x="500" 
d="M70 -10v720h90v-80q154 -7 227 -78t73 -202t-73 -201.5t-227 -78.5v-80h-90zM160 135q105 4 157.5 57t52.5 158t-52.5 158t-157.5 57v-430z" />
    <glyph glyph-name="germandbls" unicode="&#xdf;" horiz-adv-x="530" 
d="M325 -10q-22 0 -49.5 6.5t-50.5 13.5v40h80q45 0 72.5 18t27.5 67q0 30 -16.5 51t-41 38.5t-49.5 36.5t-41.5 43.5t-16.5 60.5q0 34 16 57t36.5 41.5t36.5 38.5t16 48q0 41 -26 68t-64 27q-45 0 -72.5 -33.5t-27.5 -116.5v-495h-90v495q0 116 46.5 165.5t143.5 49.5
q90 0 135 -42.5t45 -117.5q0 -36 -16 -59.5t-36.5 -42t-36.5 -38t-16 -45.5q0 -24 16.5 -41.5t41 -34t49.5 -36t41.5 -48t16.5 -70.5q0 -57 -19.5 -88.5t-57.5 -44t-93 -12.5z" />
    <glyph glyph-name="agrave" unicode="&#xe0;" 
d="M195 -10q-45 0 -78.5 13t-52.5 47.5t-19 99.5q0 63 19 96.5t52.5 46t78.5 12.5q23 0 50.5 -3t49.5 -7v45q0 68 -28.5 89t-81.5 21h-100v40q23 8 56.5 14t63.5 6q60 0 100 -13.5t60 -50t20 -106.5v-340h-75l-5 30h-5q-19 -19 -47 -29.5t-58 -10.5zM225 50q19 0 39 6.5
t31 13.5v175h-70q-25 0 -45.5 -8t-32.5 -28.5t-12 -58.5q0 -40 12 -61.5t32.5 -30t45.5 -8.5zM188 560l-63 130h95l28 -130h-60z" />
    <glyph glyph-name="aacute" unicode="&#xe1;" 
d="M195 -10q-45 0 -78.5 13t-52.5 47.5t-19 99.5q0 63 19 96.5t52.5 46t78.5 12.5q23 0 50.5 -3t49.5 -7v45q0 68 -28.5 89t-81.5 21h-100v40q23 8 56.5 14t63.5 6q60 0 100 -13.5t60 -50t20 -106.5v-340h-75l-5 30h-5q-19 -19 -47 -29.5t-58 -10.5zM225 50q19 0 39 6.5
t31 13.5v175h-70q-25 0 -45.5 -8t-32.5 -28.5t-12 -58.5q0 -40 12 -61.5t32.5 -30t45.5 -8.5zM195 560l35 130h95l-70 -130h-60z" />
    <glyph glyph-name="acircumflex" unicode="&#xe2;" 
d="M195 -10q-45 0 -78.5 13t-52.5 47.5t-19 99.5q0 63 19 96.5t52.5 46t78.5 12.5q23 0 50.5 -3t49.5 -7v45q0 68 -28.5 89t-81.5 21h-100v40q23 8 56.5 14t63.5 6q60 0 100 -13.5t60 -50t20 -106.5v-340h-75l-5 30h-5q-19 -19 -47 -29.5t-58 -10.5zM225 50q19 0 39 6.5
t31 13.5v175h-70q-25 0 -45.5 -8t-32.5 -28.5t-12 -58.5q0 -40 12 -61.5t32.5 -30t45.5 -8.5zM102 550l75 130h95l75 -130h-60l-63 74l-62 -74h-60z" />
    <glyph glyph-name="atilde" unicode="&#xe3;" 
d="M195 -10q-45 0 -78.5 13t-52.5 47.5t-19 99.5q0 63 19 96.5t52.5 46t78.5 12.5q23 0 50.5 -3t49.5 -7v45q0 68 -28.5 89t-81.5 21h-100v40q23 8 56.5 14t63.5 6q60 0 100 -13.5t60 -50t20 -106.5v-340h-75l-5 30h-5q-19 -19 -47 -29.5t-58 -10.5zM225 50q19 0 39 6.5
t31 13.5v175h-70q-25 0 -45.5 -8t-32.5 -28.5t-12 -58.5q0 -40 12 -61.5t32.5 -30t45.5 -8.5zM265 565q-19 0 -31 9t-20.5 21t-16.5 21t-17 9q-25 0 -25 -45h-50q0 56 19.5 80.5t60.5 24.5q19 0 31 -9t20.5 -21t16.5 -21t17 -9q25 0 25 45h50q0 -56 -19.5 -80.5t-60.5 -24.5
z" />
    <glyph glyph-name="adieresis" unicode="&#xe4;" 
d="M195 -10q-45 0 -78.5 13t-52.5 47.5t-19 99.5q0 63 19 96.5t52.5 46t78.5 12.5q23 0 50.5 -3t49.5 -7v45q0 68 -28.5 89t-81.5 21h-100v40q23 8 56.5 14t63.5 6q60 0 100 -13.5t60 -50t20 -106.5v-340h-75l-5 30h-5q-19 -19 -47 -29.5t-58 -10.5zM225 50q19 0 39 6.5
t31 13.5v175h-70q-25 0 -45.5 -8t-32.5 -28.5t-12 -58.5q0 -40 12 -61.5t32.5 -30t45.5 -8.5zM260 580v110h90v-110h-90zM100 580v110h90v-110h-90z" />
    <glyph glyph-name="aring" unicode="&#xe5;" 
d="M195 -10q-45 0 -78.5 13t-52.5 47.5t-19 99.5q0 63 19 96.5t52.5 46t78.5 12.5q23 0 50.5 -3t49.5 -7v45q0 68 -28.5 89t-81.5 21h-100v40q23 8 56.5 14t63.5 6q60 0 100 -13.5t60 -50t20 -106.5v-340h-75l-5 30h-5q-19 -19 -47 -29.5t-58 -10.5zM225 50q19 0 39 6.5
t31 13.5v175h-70q-25 0 -45.5 -8t-32.5 -28.5t-12 -58.5q0 -40 12 -61.5t32.5 -30t45.5 -8.5zM225 540q-37 0 -61 21.5t-24 58.5q0 38 24 59t61 21q38 0 61.5 -21t23.5 -59q0 -37 -23.5 -58.5t-61.5 -21.5zM225 585q15 0 25 8t10 27t-10 27t-25 8t-25 -8t-10 -27t10 -27
t25 -8z" />
    <glyph glyph-name="ae" unicode="&#xe6;" horiz-adv-x="690" 
d="M195 -10q-45 0 -78.5 12.5t-52.5 45t-19 92.5q0 58 19 89t52.5 43.5t78.5 12.5q23 0 50.5 -3t49.5 -7v65q0 68 -28.5 89t-81.5 21h-100v40q23 8 56.5 14t63.5 6q45 0 83 -18t57 -52q19 34 51.5 52t73.5 18q58 0 96.5 -23t58.5 -78.5t20 -153.5v-30h-260v-15
q2 -91 34.5 -125.5t105.5 -34.5h100v-40q-22 -7 -56 -13.5t-64 -6.5q-60 0 -97 16.5t-63 53.5q-22 -34 -59.5 -52t-90.5 -18zM215 50q25 0 43 7.5t27.5 15l9.5 7.5v145h-70q-37 0 -63.5 -18t-26.5 -67q0 -52 25 -71t55 -19zM385 285h170q0 65 -12 102t-31 52.5t-42 15.5
q-22 0 -41.5 -15t-31.5 -52t-12 -103z" />
    <glyph glyph-name="ccedilla" unicode="&#xe7;" horiz-adv-x="375" 
d="M240 -10q-67 0 -110.5 23.5t-64 80t-20.5 156.5t20 156.5t61.5 80t103.5 23.5q30 0 64 -6t56 -14v-40h-100q-37 0 -63 -16.5t-39 -60t-13 -123.5t13.5 -123.5t41.5 -60t70 -16.5h100v-40q-22 -7 -56 -13.5t-64 -6.5zM245 -165q-34 0 -54.5 7.5l-20.5 7.5v30h65
q15 0 22.5 7t7.5 18t-7.5 18t-22.5 7h-55v85h50v-40h15q41 0 63 -20t22 -50t-22 -50t-63 -20z" />
    <glyph glyph-name="egrave" unicode="&#xe8;" horiz-adv-x="440" 
d="M255 -10q-75 0 -121 23.5t-67.5 80t-21.5 156.5t20 156.5t59 80t96 23.5q58 0 96.5 -23.5t58.5 -80t20 -156.5v-30h-260q0 -97 32.5 -133.5t107.5 -36.5h100v-40q-22 -7 -56 -13.5t-64 -6.5zM135 280h170q0 68 -12 106t-31 53.5t-42 15.5q-22 0 -41.5 -15.5t-31.5 -53.5
t-12 -106zM183 560l-63 130h95l28 -130h-60z" />
    <glyph glyph-name="eacute" unicode="&#xe9;" horiz-adv-x="440" 
d="M255 -10q-75 0 -121 23.5t-67.5 80t-21.5 156.5t20 156.5t59 80t96 23.5q58 0 96.5 -23.5t58.5 -80t20 -156.5v-30h-260q0 -97 32.5 -133.5t107.5 -36.5h100v-40q-22 -7 -56 -13.5t-64 -6.5zM135 280h170q0 68 -12 106t-31 53.5t-42 15.5q-22 0 -41.5 -15.5t-31.5 -53.5
t-12 -106zM190 560l35 130h95l-70 -130h-60z" />
    <glyph glyph-name="ecircumflex" unicode="&#xea;" horiz-adv-x="440" 
d="M255 -10q-75 0 -121 23.5t-67.5 80t-21.5 156.5t20 156.5t59 80t96 23.5q58 0 96.5 -23.5t58.5 -80t20 -156.5v-30h-260q0 -97 32.5 -133.5t107.5 -36.5h100v-40q-22 -7 -56 -13.5t-64 -6.5zM135 280h170q0 68 -12 106t-31 53.5t-42 15.5q-22 0 -41.5 -15.5t-31.5 -53.5
t-12 -106zM97 550l75 130h95l75 -130h-60l-63 74l-62 -74h-60z" />
    <glyph glyph-name="edieresis" unicode="&#xeb;" horiz-adv-x="440" 
d="M255 -10q-75 0 -121 23.5t-67.5 80t-21.5 156.5t20 156.5t59 80t96 23.5q58 0 96.5 -23.5t58.5 -80t20 -156.5v-30h-260q0 -97 32.5 -133.5t107.5 -36.5h100v-40q-22 -7 -56 -13.5t-64 -6.5zM135 280h170q0 68 -12 106t-31 53.5t-42 15.5q-22 0 -41.5 -15.5t-31.5 -53.5
t-12 -106zM255 580v110h90v-110h-90zM95 580v110h90v-110h-90z" />
    <glyph glyph-name="igrave" unicode="&#xec;" horiz-adv-x="230" 
d="M70 0v500h90v-500h-90zM78 560l-63 130h95l28 -130h-60z" />
    <glyph glyph-name="iacute" unicode="&#xed;" horiz-adv-x="230" 
d="M70 0v500h90v-500h-90zM85 560l35 130h95l-70 -130h-60z" />
    <glyph glyph-name="icircumflex" unicode="&#xee;" horiz-adv-x="230" 
d="M70 0v500h90v-500h-90zM-8 550l75 130h95l75 -130h-60l-63 74l-62 -74h-60z" />
    <glyph glyph-name="idieresis" unicode="&#xef;" horiz-adv-x="230" 
d="M70 0v500h90v-500h-90zM150 580v110h90v-110h-90zM-10 580v110h90v-110h-90z" />
    <glyph glyph-name="eth" unicode="&#xf0;" horiz-adv-x="455" 
d="M225 -10q-94 0 -139.5 50.5t-45.5 174.5t44.5 174.5t130.5 50.5q34 0 58.5 -7t46.5 -18q0 38 -9 70.5t-26 59.5l-50 -60l-45 35l58 69q-31 27 -74 47.5t-99 33.5l5 40q66 -6 118.5 -23t92.5 -46l54 64l45 -35l-57 -67q38 -43 57.5 -103t19.5 -140v-145
q0 -124 -45.5 -174.5t-139.5 -50.5zM225 45q28 0 49 15.5t33.5 52.5t12.5 102v145q-11 8 -31.5 14t-43.5 6q-56 0 -85.5 -35.5t-29.5 -129.5q0 -65 12.5 -102t34 -52.5t48.5 -15.5z" />
    <glyph glyph-name="ntilde" unicode="&#xf1;" horiz-adv-x="475" 
d="M65 0v500h75l5 -30h5q19 19 47 29.5t58 10.5q48 0 82.5 -12.5t53.5 -45t19 -92.5v-360h-90v360q0 53 -27 71.5t-68 18.5q-19 0 -39 -6t-31 -14v-430h-90zM275 565q-19 0 -31 9t-20.5 21t-16.5 21t-17 9q-25 0 -25 -45h-50q0 56 19.5 80.5t60.5 24.5q19 0 31 -9t20.5 -21
t16.5 -21t17 -9q25 0 25 45h50q0 -56 -19.5 -80.5t-60.5 -24.5z" />
    <glyph glyph-name="ograve" unicode="&#xf2;" horiz-adv-x="460" 
d="M230 -10q-60 0 -101 24.5t-62.5 81.5t-21.5 154q0 98 21.5 154.5t62.5 81t101 24.5t101.5 -24.5t62.5 -81t21 -154.5q0 -97 -21 -154t-62.5 -81.5t-101.5 -24.5zM230 45q25 0 46.5 18t35 62.5t13.5 124.5t-13.5 124.5t-35 62.5t-46.5 18t-46.5 -18t-35 -62.5
t-13.5 -124.5t13.5 -124.5t35 -62.5t46.5 -18zM193 560l-63 130h95l28 -130h-60z" />
    <glyph glyph-name="oacute" unicode="&#xf3;" horiz-adv-x="460" 
d="M230 -10q-60 0 -101 24.5t-62.5 81.5t-21.5 154q0 98 21.5 154.5t62.5 81t101 24.5t101.5 -24.5t62.5 -81t21 -154.5q0 -97 -21 -154t-62.5 -81.5t-101.5 -24.5zM230 45q25 0 46.5 18t35 62.5t13.5 124.5t-13.5 124.5t-35 62.5t-46.5 18t-46.5 -18t-35 -62.5
t-13.5 -124.5t13.5 -124.5t35 -62.5t46.5 -18zM200 560l35 130h95l-70 -130h-60z" />
    <glyph glyph-name="ocircumflex" unicode="&#xf4;" horiz-adv-x="460" 
d="M230 -10q-60 0 -101 24.5t-62.5 81.5t-21.5 154q0 98 21.5 154.5t62.5 81t101 24.5t101.5 -24.5t62.5 -81t21 -154.5q0 -97 -21 -154t-62.5 -81.5t-101.5 -24.5zM230 45q25 0 46.5 18t35 62.5t13.5 124.5t-13.5 124.5t-35 62.5t-46.5 18t-46.5 -18t-35 -62.5
t-13.5 -124.5t13.5 -124.5t35 -62.5t46.5 -18zM107 550l75 130h95l75 -130h-60l-63 74l-62 -74h-60z" />
    <glyph glyph-name="otilde" unicode="&#xf5;" horiz-adv-x="460" 
d="M230 -10q-60 0 -101 24.5t-62.5 81.5t-21.5 154q0 98 21.5 154.5t62.5 81t101 24.5t101.5 -24.5t62.5 -81t21 -154.5q0 -97 -21 -154t-62.5 -81.5t-101.5 -24.5zM230 45q25 0 46.5 18t35 62.5t13.5 124.5t-13.5 124.5t-35 62.5t-46.5 18t-46.5 -18t-35 -62.5
t-13.5 -124.5t13.5 -124.5t35 -62.5t46.5 -18zM270 565q-19 0 -31 9t-20.5 21t-16.5 21t-17 9q-25 0 -25 -45h-50q0 56 19.5 80.5t60.5 24.5q19 0 31 -9t20.5 -21t16.5 -21t17 -9q25 0 25 45h50q0 -56 -19.5 -80.5t-60.5 -24.5z" />
    <glyph glyph-name="odieresis" unicode="&#xf6;" horiz-adv-x="460" 
d="M230 -10q-60 0 -101 24.5t-62.5 81.5t-21.5 154q0 98 21.5 154.5t62.5 81t101 24.5t101.5 -24.5t62.5 -81t21 -154.5q0 -97 -21 -154t-62.5 -81.5t-101.5 -24.5zM230 45q25 0 46.5 18t35 62.5t13.5 124.5t-13.5 124.5t-35 62.5t-46.5 18t-46.5 -18t-35 -62.5
t-13.5 -124.5t13.5 -124.5t35 -62.5t46.5 -18zM265 580v110h90v-110h-90zM105 580v110h90v-110h-90z" />
    <glyph glyph-name="divide" unicode="&#xf7;" horiz-adv-x="430" 
d="M30 260v80h370v-80h-370zM175 95v90h80v-90h-80zM175 415v90h80v-90h-80z" />
    <glyph glyph-name="oslash" unicode="&#xf8;" horiz-adv-x="480" 
d="M240 -10q-48 0 -84 15t-59 50l-32 -35l-35 40l43 47q-9 28 -13.5 63.5t-4.5 79.5q0 98 21.5 154.5t62.5 81t101 24.5q47 0 83.5 -15t59.5 -50l32 35l35 -40l-43 -47q8 -28 13 -63.5t5 -79.5q0 -97 -21 -154t-62.5 -81.5t-101.5 -24.5zM240 45q25 0 46.5 18t35 62.5
t13.5 124.5q0 17 -0.5 32.5t-2.5 28.5l-173 -188q13 -44 34.5 -61t46.5 -17zM147 188l173 189q-13 44 -34 61t-46 17t-46.5 -18t-35 -62.5t-13.5 -124.5q0 -17 0.5 -32.5t1.5 -29.5z" />
    <glyph glyph-name="ugrave" unicode="&#xf9;" horiz-adv-x="475" 
d="M220 -10q-47 0 -82 12.5t-54 45t-19 92.5v360h90v-360q0 -52 27 -71t68 -19q19 0 39 6.5t31 13.5v430h90v-500h-75l-5 30h-5q-19 -19 -47 -29.5t-58 -10.5zM201 560l-63 130h95l28 -130h-60z" />
    <glyph glyph-name="uacute" unicode="&#xfa;" horiz-adv-x="475" 
d="M220 -10q-47 0 -82 12.5t-54 45t-19 92.5v360h90v-360q0 -52 27 -71t68 -19q19 0 39 6.5t31 13.5v430h90v-500h-75l-5 30h-5q-19 -19 -47 -29.5t-58 -10.5zM208 560l35 130h95l-70 -130h-60z" />
    <glyph glyph-name="ucircumflex" unicode="&#xfb;" horiz-adv-x="475" 
d="M220 -10q-47 0 -82 12.5t-54 45t-19 92.5v360h90v-360q0 -52 27 -71t68 -19q19 0 39 6.5t31 13.5v430h90v-500h-75l-5 30h-5q-19 -19 -47 -29.5t-58 -10.5zM117 550l75 130h95l75 -130h-60l-63 74l-62 -74h-60z" />
    <glyph glyph-name="udieresis" unicode="&#xfc;" horiz-adv-x="475" 
d="M220 -10q-47 0 -82 12.5t-54 45t-19 92.5v360h90v-360q0 -52 27 -71t68 -19q19 0 39 6.5t31 13.5v430h90v-500h-75l-5 30h-5q-19 -19 -47 -29.5t-58 -10.5zM273 580v110h90v-110h-90zM113 580v110h90v-110h-90z" />
    <glyph glyph-name="yacute" unicode="&#xfd;" horiz-adv-x="475" 
d="M210 -210q-30 0 -63.5 6.5t-56.5 13.5v40h100q68 0 99 35.5t31 129.5q-22 -11 -46 -18t-54 -7q-47 0 -82 12.5t-54 45t-19 92.5v360h90v-360q0 -52 27 -71t68 -19q19 0 39 6.5t31 13.5v430h90v-460q0 -95 -21 -149.5t-65 -77.5t-114 -23zM208 560l35 130h95l-70 -130h-60
z" />
    <glyph glyph-name="thorn" unicode="&#xfe;" horiz-adv-x="470" 
d="M70 -200v900h90v-215q23 11 46.5 18t53.5 7q53 0 89.5 -23.5t56 -80t19.5 -156.5t-19.5 -156.5t-56 -80t-89.5 -23.5q-30 0 -53.5 7t-46.5 18v-215h-90zM230 50q33 0 56.5 16.5t36 60t12.5 123.5t-12.5 123.5t-36 60t-56.5 16.5q-19 0 -39 -6t-31 -14v-360
q11 -7 31 -13.5t39 -6.5z" />
    <glyph glyph-name="ydieresis" unicode="&#xff;" horiz-adv-x="475" 
d="M210 -210q-30 0 -63.5 6.5t-56.5 13.5v40h100q68 0 99 35.5t31 129.5q-22 -11 -46 -18t-54 -7q-47 0 -82 12.5t-54 45t-19 92.5v360h90v-360q0 -52 27 -71t68 -19q19 0 39 6.5t31 13.5v430h90v-460q0 -95 -21 -149.5t-65 -77.5t-114 -23zM273 580v110h90v-110h-90z
M113 580v110h90v-110h-90z" />
    <glyph glyph-name="Amacron" unicode="&#x100;" horiz-adv-x="510" 
d="M20 0l170 700h130l170 -700h-90l-45 180h-200l-45 -180h-90zM170 250h170l-83 350h-4zM140 795v60h230v-60h-230z" />
    <glyph glyph-name="amacron" unicode="&#x101;" 
d="M195 -10q-45 0 -78.5 13t-52.5 47.5t-19 99.5q0 63 19 96.5t52.5 46t78.5 12.5q23 0 50.5 -3t49.5 -7v45q0 68 -28.5 89t-81.5 21h-100v40q23 8 56.5 14t63.5 6q60 0 100 -13.5t60 -50t20 -106.5v-340h-75l-5 30h-5q-19 -19 -47 -29.5t-58 -10.5zM225 50q19 0 39 6.5
t31 13.5v175h-70q-25 0 -45.5 -8t-32.5 -28.5t-12 -58.5q0 -40 12 -61.5t32.5 -30t45.5 -8.5zM110 610v60h230v-60h-230z" />
    <glyph glyph-name="Abreve" unicode="&#x102;" horiz-adv-x="510" 
d="M20 0l170 700h130l170 -700h-90l-45 180h-200l-45 -180h-90zM170 250h170l-83 350h-4zM255 770q-49 0 -82.5 20t-52.5 50l40 40q15 -15 40 -27.5t55 -12.5t55 12.5t40 27.5l40 -40q-19 -30 -52.5 -50t-82.5 -20z" />
    <glyph glyph-name="abreve" unicode="&#x103;" 
d="M195 -10q-45 0 -78.5 13t-52.5 47.5t-19 99.5q0 63 19 96.5t52.5 46t78.5 12.5q23 0 50.5 -3t49.5 -7v45q0 68 -28.5 89t-81.5 21h-100v40q23 8 56.5 14t63.5 6q60 0 100 -13.5t60 -50t20 -106.5v-340h-75l-5 30h-5q-19 -19 -47 -29.5t-58 -10.5zM225 50q19 0 39 6.5
t31 13.5v175h-70q-25 0 -45.5 -8t-32.5 -28.5t-12 -58.5q0 -40 12 -61.5t32.5 -30t45.5 -8.5zM225 570q-49 0 -82.5 20t-52.5 50l40 40q15 -15 40 -27.5t55 -12.5t55 12.5t40 27.5l40 -40q-19 -30 -52.5 -50t-82.5 -20z" />
    <glyph glyph-name="Aogonek" unicode="&#x104;" horiz-adv-x="510" 
d="M20 0l170 700h130l170 -700h-90l-45 180h-200l-45 -180h-90zM170 250h170l-83 350h-4zM468 -160q-41 0 -63 21.5t-22 58.5q0 23 6.5 41t12.5 28.5l6 10.5h40v-45q0 -34 13 -46.5t47 -12.5h35v-41l-20.5 -7.5t-54.5 -7.5z" />
    <glyph glyph-name="aogonek" unicode="&#x105;" 
d="M195 -10q-45 0 -78.5 13t-52.5 47.5t-19 99.5q0 63 19 96.5t52.5 46t78.5 12.5q23 0 50.5 -3t49.5 -7v45q0 68 -28.5 89t-81.5 21h-100v40q23 8 56.5 14t63.5 6q60 0 100 -13.5t60 -50t20 -106.5v-340h-75l-5 30h-5q-19 -19 -47 -29.5t-58 -10.5zM225 50q19 0 39 6.5
t31 13.5v175h-70q-25 0 -45.5 -8t-32.5 -28.5t-12 -58.5q0 -40 12 -61.5t32.5 -30t45.5 -8.5zM381 -160q-41 0 -63 21.5t-22 58.5q0 23 6.5 41t12.5 28.5l6 10.5h40v-45q0 -34 13 -46.5t47 -12.5h35v-41l-20.5 -7.5t-54.5 -7.5z" />
    <glyph glyph-name="Cacute" unicode="&#x106;" horiz-adv-x="435" 
d="M270 -10q-70 0 -119 31.5t-75 110t-26 218.5t25.5 218.5t72.5 110t112 31.5q45 0 86.5 -6t63.5 -14v-45h-130q-40 0 -71.5 -25t-50 -88.5t-18.5 -181.5q0 -117 19 -181t52.5 -89t78.5 -25h130v-45q-22 -7 -63.5 -13.5t-86.5 -6.5zM235 760l35 130h95l-70 -130h-60z" />
    <glyph glyph-name="cacute" unicode="&#x107;" horiz-adv-x="375" 
d="M240 -10q-67 0 -110.5 23.5t-64 80t-20.5 156.5t20 156.5t61.5 80t103.5 23.5q30 0 64 -6t56 -14v-40h-100q-37 0 -63 -16.5t-39 -60t-13 -123.5t13.5 -123.5t41.5 -60t70 -16.5h100v-40q-22 -7 -56 -13.5t-64 -6.5zM190 560l35 130h95l-70 -130h-60z" />
    <glyph glyph-name="Ccaron" unicode="&#x10c;" horiz-adv-x="435" 
d="M270 -10q-70 0 -119 31.5t-75 110t-26 218.5t25.5 218.5t72.5 110t112 31.5q45 0 86.5 -6t63.5 -14v-45h-130q-40 0 -71.5 -25t-50 -88.5t-18.5 -181.5q0 -117 19 -181t52.5 -89t78.5 -25h130v-45q-22 -7 -63.5 -13.5t-86.5 -6.5zM217 760l-75 130h60l62 -74l63 74h60
l-75 -130h-95z" />
    <glyph glyph-name="ccaron" unicode="&#x10d;" horiz-adv-x="375" 
d="M240 -10q-67 0 -110.5 23.5t-64 80t-20.5 156.5t20 156.5t61.5 80t103.5 23.5q30 0 64 -6t56 -14v-40h-100q-37 0 -63 -16.5t-39 -60t-13 -123.5t13.5 -123.5t41.5 -60t70 -16.5h100v-40q-22 -7 -56 -13.5t-64 -6.5zM172 560l-75 130h60l62 -74l63 74h60l-75 -130h-95z
" />
    <glyph glyph-name="Dcroat" unicode="&#x110;" horiz-adv-x="540" 
d="M250 -10q-45 0 -83.5 4.5t-76.5 15.5v310h-80v70h80v300q38 11 76.5 15.5t83.5 4.5q80 0 133.5 -31.5t80 -110t26.5 -218.5t-26.5 -218.5t-80 -110t-133.5 -31.5zM180 55h70q45 0 78.5 25t52.5 89t19 181q0 118 -19 181.5t-52.5 88.5t-78.5 25h-70v-255h110v-70h-110
v-265z" />
    <glyph glyph-name="dcroat" unicode="&#x111;" horiz-adv-x="470" 
d="M210 -10q-52 0 -89 23.5t-56.5 80t-19.5 156.5t19.5 156.5t56.5 80t89 23.5q30 0 54 -7t46 -18v215h90v-700h-75l-5 30h-5q-19 -19 -47 -29.5t-58 -10.5zM240 50q19 0 39 6.5t31 13.5v360q-11 8 -31 14t-39 6q-32 0 -56 -16.5t-36.5 -60t-12.5 -123.5t12.5 -123.5
t36.5 -60t56 -16.5zM155 576v65h290v-45q-22 -7 -56 -13.5t-64 -6.5h-170z" />
    <glyph glyph-name="Emacron" unicode="&#x112;" 
d="M70 0v700h340v-70h-250v-230h220v-70h-220v-260h250v-70h-340zM123 795v60h230v-60h-230z" />
    <glyph glyph-name="emacron" unicode="&#x113;" horiz-adv-x="440" 
d="M255 -10q-75 0 -121 23.5t-67.5 80t-21.5 156.5t20 156.5t59 80t96 23.5q58 0 96.5 -23.5t58.5 -80t20 -156.5v-30h-260q0 -97 32.5 -133.5t107.5 -36.5h100v-40q-22 -7 -56 -13.5t-64 -6.5zM135 280h170q0 68 -12 106t-31 53.5t-42 15.5q-22 0 -41.5 -15.5t-31.5 -53.5
t-12 -106zM105 610v60h230v-60h-230z" />
    <glyph glyph-name="Edotaccent" unicode="&#x116;" 
d="M70 0v700h340v-70h-250v-230h220v-70h-220v-260h250v-70h-340zM200 770v110h90v-110h-90z" />
    <glyph glyph-name="edotaccent" unicode="&#x117;" horiz-adv-x="440" 
d="M255 -10q-75 0 -121 23.5t-67.5 80t-21.5 156.5t20 156.5t59 80t96 23.5q58 0 96.5 -23.5t58.5 -80t20 -156.5v-30h-260q0 -97 32.5 -133.5t107.5 -36.5h100v-40q-22 -7 -56 -13.5t-64 -6.5zM135 280h170q0 68 -12 106t-31 53.5t-42 15.5q-22 0 -41.5 -15.5t-31.5 -53.5
t-12 -106zM175 570v110h90v-110h-90z" />
    <glyph glyph-name="Eogonek" unicode="&#x118;" 
d="M70 0v700h340v-70h-250v-230h220v-70h-220v-260h250v-70h-340zM384 -160q-41 0 -63 21.5t-22 58.5q0 23 6.5 41t12.5 28.5l6 10.5h40v-45q0 -34 13 -46.5t47 -12.5h35v-41l-20.5 -7.5t-54.5 -7.5z" />
    <glyph glyph-name="eogonek" unicode="&#x119;" horiz-adv-x="440" 
d="M255 -10q-75 0 -121 23.5t-67.5 80t-21.5 156.5t20 156.5t59 80t96 23.5q58 0 96.5 -23.5t58.5 -80t20 -156.5v-30h-260q0 -97 32.5 -133.5t107.5 -36.5h100v-40q-22 -7 -56 -13.5t-64 -6.5zM135 280h170q0 68 -12 106t-31 53.5t-42 15.5q-22 0 -41.5 -15.5t-31.5 -53.5
t-12 -106zM275 -160q-41 0 -63 21.5t-22 58.5q0 23 6.5 41t12.5 28.5l6 10.5h40v-45q0 -34 13 -46.5t47 -12.5h35v-41l-20.5 -7.5t-54.5 -7.5z" />
    <glyph glyph-name="Gbreve" unicode="&#x11e;" horiz-adv-x="500" 
d="M290 -10q-80 0 -133.5 31.5t-80 110t-26.5 218.5t26 218.5t75 110t119 31.5q45 0 86.5 -6t63.5 -14v-45h-130q-45 0 -78.5 -25t-52.5 -88.5t-19 -181.5q0 -117 19.5 -181t57.5 -89t93 -25h40v325h90v-370q-22 -7 -63.5 -13.5t-86.5 -6.5zM273 770q-49 0 -82.5 20
t-52.5 50l40 40q15 -15 40 -27.5t55 -12.5t55 12.5t40 27.5l40 -40q-19 -30 -52.5 -50t-82.5 -20z" />
    <glyph glyph-name="gbreve" unicode="&#x11f;" horiz-adv-x="465" 
d="M200 -210q-30 0 -63.5 6.5t-56.5 13.5v40h100q68 0 99 35.5t31 129.5q-22 -11 -46 -18t-54 -7q-52 0 -89 23.5t-56.5 80t-19.5 156.5t20.5 156.5t64 80t110.5 23.5q45 0 84 -7.5t76 -22.5v-440q0 -95 -21 -149.5t-65 -77.5t-114 -23zM240 50q19 0 39 6.5t31 13.5v380h-70
q-32 0 -56 -16.5t-36.5 -60t-12.5 -123.5t12.5 -123.5t36.5 -60t56 -16.5zM230 570q-49 0 -82.5 20t-52.5 50l40 40q15 -15 40 -27.5t55 -12.5t55 12.5t40 27.5l40 -40q-19 -30 -52.5 -50t-82.5 -20z" />
    <glyph glyph-name="uni0122" unicode="&#x122;" horiz-adv-x="500" 
d="M290 -10q-80 0 -133.5 31.5t-80 110t-26.5 218.5t26 218.5t75 110t119 31.5q45 0 86.5 -6t63.5 -14v-45h-130q-45 0 -78.5 -25t-52.5 -88.5t-19 -181.5q0 -117 19.5 -181t57.5 -89t93 -25h40v325h90v-370q-22 -7 -63.5 -13.5t-86.5 -6.5zM231 -210v150h90l-30 -150h-60z
" />
    <glyph glyph-name="uni0123" unicode="&#x123;" horiz-adv-x="465" 
d="M200 -210q-30 0 -63.5 6.5t-56.5 13.5v40h100q68 0 99 35.5t31 129.5q-22 -11 -46 -18t-54 -7q-52 0 -89 23.5t-56.5 80t-19.5 156.5t20.5 156.5t64 80t110.5 23.5q45 0 84 -7.5t76 -22.5v-440q0 -95 -21 -149.5t-65 -77.5t-114 -23zM240 50q19 0 39 6.5t31 13.5v380h-70
q-32 0 -56 -16.5t-36.5 -60t-12.5 -123.5t12.5 -123.5t36.5 -60t56 -16.5zM191 570l30 150h60v-150h-90z" />
    <glyph glyph-name="hbar" unicode="&#x127;" horiz-adv-x="490" 
d="M80 0v545h-60v65h60v90h90v-90h140v-45q-22 -7 -56 -13.5t-64 -6.5h-20v-90q23 11 49.5 18t60.5 7q43 0 75.5 -12.5t51 -45t18.5 -92.5v-330h-90v330q0 53 -27 71.5t-68 18.5q-19 0 -39 -6t-31 -14v-400h-90z" />
    <glyph glyph-name="Itilde" unicode="&#x128;" horiz-adv-x="230" 
d="M70 0v700h90v-700h-90zM155 765q-19 0 -31 9t-20.5 21t-16.5 21t-17 9q-25 0 -25 -45h-50q0 56 19.5 80.5t60.5 24.5q19 0 31 -9t20.5 -21t16.5 -21t17 -9q25 0 25 45h50q0 -56 -19.5 -80.5t-60.5 -24.5z" />
    <glyph glyph-name="itilde" unicode="&#x129;" horiz-adv-x="230" 
d="M70 0v500h90v-500h-90zM155 565q-19 0 -31 9t-20.5 21t-16.5 21t-17 9q-25 0 -25 -45h-50q0 56 19.5 80.5t60.5 24.5q19 0 31 -9t20.5 -21t16.5 -21t17 -9q25 0 25 45h50q0 -56 -19.5 -80.5t-60.5 -24.5z" />
    <glyph glyph-name="Imacron" unicode="&#x12a;" horiz-adv-x="230" 
d="M70 0v700h90v-700h-90zM5 795v60h230v-60h-230z" />
    <glyph glyph-name="imacron" unicode="&#x12b;" horiz-adv-x="230" 
d="M70 0v500h90v-500h-90zM0 610v60h230v-60h-230z" />
    <glyph glyph-name="Iogonek" unicode="&#x12e;" horiz-adv-x="230" 
d="M70 0v700h90v-700h-90zM139 -160q-41 0 -63 21.5t-22 58.5q0 23 6.5 41t12.5 28.5l6 10.5h40v-45q0 -34 13 -46.5t47 -12.5h35v-41l-20.5 -7.5t-54.5 -7.5z" />
    <glyph glyph-name="iogonek" unicode="&#x12f;" horiz-adv-x="230" 
d="M70 0v500h90v-500h-90zM70 570v110h90v-110h-90zM141 -160q-41 0 -63 21.5t-22 58.5q0 23 6.5 41t12.5 28.5l6 10.5h40v-45q0 -34 13 -46.5t47 -12.5h35v-41l-20.5 -7.5t-54.5 -7.5z" />
    <glyph glyph-name="Idotaccent" unicode="&#x130;" horiz-adv-x="230" 
d="M70 0v700h90v-700h-90zM70 770v110h90v-110h-90z" />
    <glyph glyph-name="dotlessi" unicode="&#x131;" horiz-adv-x="230" 
d="M70 0v500h90v-500h-90z" />
    <glyph glyph-name="ij" unicode="&#x133;" horiz-adv-x="460" 
d="M250 -210q-22 0 -46.5 6.5t-43.5 13.5v40h70q15 0 31.5 9t27.5 32.5t11 68.5v475h-140v-435h-90v500h320v-540q0 -70 -18.5 -106.5t-50 -50t-71.5 -13.5zM70 570v110h90v-110h-90zM300 570v110h90v-110h-90z" />
    <glyph glyph-name="Jcircumflex" unicode="&#x134;" horiz-adv-x="350" 
d="M90 -10q-22 0 -46.5 6.5t-43.5 13.5v45h90q35 0 59.5 16t37.5 56.5t13 112.5v460h90v-460q0 -95 -21 -149.5t-65 -77.5t-114 -23zM122 750l75 130h95l75 -130h-60l-63 74l-62 -74h-60z" />
    <glyph glyph-name="jcircumflex" unicode="&#x135;" horiz-adv-x="240" 
d="M30 -210q-22 0 -46.5 6.5t-43.5 13.5v40h70q15 0 31.5 9t27.5 32.5t11 68.5v540h90v-540q0 -70 -18.5 -106.5t-50 -50t-71.5 -13.5zM2 550l75 130h95l75 -130h-60l-63 74l-62 -74h-60z" />
    <glyph glyph-name="uni0136" unicode="&#x136;" horiz-adv-x="490" 
d="M70 0v700h90v-340l195 340h105l-205 -345l225 -355h-105l-215 350v-350h-90zM210 -210v150h90l-30 -150h-60z" />
    <glyph glyph-name="uni0137" unicode="&#x137;" horiz-adv-x="435" 
d="M70 0v700h90v-430l145 230h100l-155 -235l175 -265h-100l-165 260v-260h-90zM191 -210v150h90l-30 -150h-60z" />
    <glyph glyph-name="kgreenlandic" unicode="&#x138;" horiz-adv-x="435" 
d="M70 0v500h90v-230l145 230h100l-155 -235l175 -265h-100l-165 260v-260h-90z" />
    <glyph glyph-name="uni013B" unicode="&#x13b;" horiz-adv-x="420" 
d="M70 0v700h90v-630h250v-70h-340zM201 -210v150h90l-30 -150h-60z" />
    <glyph glyph-name="uni013C" unicode="&#x13c;" horiz-adv-x="230" 
d="M70 0v700h90v-700h-90zM71 -210v150h90l-30 -150h-60z" />
    <glyph glyph-name="ldot" unicode="&#x140;" horiz-adv-x="360" 
d="M70 0v700h90v-700h-90zM220 295v110h90v-110h-90z" />
    <glyph glyph-name="Lslash" unicode="&#x141;" horiz-adv-x="425" 
d="M75 0v290l-50 -35l-35 50l85 60v335h90v-270l60 40l35 -50l-95 -65v-285h250v-70h-340z" />
    <glyph glyph-name="lslash" unicode="&#x142;" horiz-adv-x="270" 
d="M85 0v290l-50 -35l-35 50l85 60v335h90v-270l60 40l35 -50l-95 -65v-355h-90z" />
    <glyph glyph-name="Nacute" unicode="&#x143;" horiz-adv-x="540" 
d="M70 0v700h100l205 -495h5v495h90v-700h-100l-205 495h-5v-495h-90zM245 760l35 130h95l-70 -130h-60z" />
    <glyph glyph-name="nacute" unicode="&#x144;" horiz-adv-x="475" 
d="M65 0v500h75l5 -30h5q19 19 47 29.5t58 10.5q48 0 82.5 -12.5t53.5 -45t19 -92.5v-360h-90v360q0 53 -27 71.5t-68 18.5q-19 0 -39 -6t-31 -14v-430h-90zM205 560l35 130h95l-70 -130h-60z" />
    <glyph glyph-name="uni0145" unicode="&#x145;" horiz-adv-x="540" 
d="M70 0v700h100l205 -495h5v495h90v-700h-100l-205 495h-5v-495h-90zM220 -210v150h90l-30 -150h-60z" />
    <glyph glyph-name="uni0146" unicode="&#x146;" horiz-adv-x="475" 
d="M65 0v500h75l5 -30h5q19 19 47 29.5t58 10.5q48 0 82.5 -12.5t53.5 -45t19 -92.5v-360h-90v360q0 53 -27 71.5t-68 18.5q-19 0 -39 -6t-31 -14v-430h-90zM194 -210v150h90l-30 -150h-60z" />
    <glyph glyph-name="Omacron" unicode="&#x14c;" horiz-adv-x="530" 
d="M265 -10q-67 0 -115.5 31.5t-74 110t-25.5 218.5t25.5 218.5t74 110t115.5 31.5q68 0 116 -31.5t73.5 -110t25.5 -218.5t-25.5 -218.5t-73.5 -110t-116 -31.5zM265 50q24 0 46.5 13.5t40.5 46.5t28 91.5t10 148.5t-10 148.5t-28 91.5t-40.5 46.5t-46.5 13.5t-46.5 -13.5
t-40.5 -46.5t-28 -91.5t-10 -148.5t10 -148.5t28 -91.5t40.5 -46.5t46.5 -13.5zM152 795v60h230v-60h-230z" />
    <glyph glyph-name="omacron" unicode="&#x14d;" horiz-adv-x="460" 
d="M230 -10q-60 0 -101 24.5t-62.5 81.5t-21.5 154q0 98 21.5 154.5t62.5 81t101 24.5t101.5 -24.5t62.5 -81t21 -154.5q0 -97 -21 -154t-62.5 -81.5t-101.5 -24.5zM230 45q25 0 46.5 18t35 62.5t13.5 124.5t-13.5 124.5t-35 62.5t-46.5 18t-46.5 -18t-35 -62.5
t-13.5 -124.5t13.5 -124.5t35 -62.5t46.5 -18zM115 610v60h230v-60h-230z" />
    <glyph glyph-name="OE" unicode="&#x152;" horiz-adv-x="740" 
d="M330 0q-142 0 -216 81.5t-74 268.5q0 188 74 269t216 81h370v-70h-250v-230h220v-70h-220v-260h250v-70h-370zM330 70h30v560h-30q-65 0 -109.5 -26t-67.5 -87.5t-23 -166.5t23 -166t67.5 -87.5t109.5 -26.5z" />
    <glyph glyph-name="oe" unicode="&#x153;" horiz-adv-x="720" 
d="M230 -10q-60 0 -101 24.5t-62.5 81.5t-21.5 154q0 98 21.5 154.5t62.5 81t101 24.5q41 0 78.5 -21t56.5 -59q19 38 56.5 59t78.5 21q58 0 96.5 -23.5t58.5 -80t20 -156.5v-30h-260q0 -97 32.5 -133.5t107.5 -36.5h100v-40q-22 -7 -56 -13.5t-64 -6.5q-67 0 -105.5 19.5
t-64.5 60.5q-19 -37 -56.5 -58.5t-78.5 -21.5zM230 45q25 0 46.5 18t35 62.5t13.5 124.5t-13.5 124.5t-35 62.5t-46.5 18t-46.5 -18t-35 -62.5t-13.5 -124.5t13.5 -124.5t35 -62.5t46.5 -18zM415 280h170q0 68 -12 106t-31 53.5t-42 15.5q-22 0 -41.5 -15.5t-31.5 -53.5
t-12 -106z" />
    <glyph glyph-name="Racute" unicode="&#x154;" horiz-adv-x="505" 
d="M70 0v690q38 11 76.5 15.5t83.5 4.5q80 0 128.5 -22.5t70 -75t21.5 -142.5q0 -67 -11.5 -111.5t-33.5 -70t-55 -38.5l120 -250h-100l-110 230h-100v-230h-90zM160 300h70q68 0 99 36.5t31 133.5q0 68 -13.5 106t-42.5 53.5t-74 15.5h-70v-345zM205 760l35 130h95
l-70 -130h-60z" />
    <glyph glyph-name="uni0156" unicode="&#x156;" horiz-adv-x="505" 
d="M70 0v690q38 11 76.5 15.5t83.5 4.5q80 0 128.5 -22.5t70 -75t21.5 -142.5q0 -67 -11.5 -111.5t-33.5 -70t-55 -38.5l120 -250h-100l-110 230h-100v-230h-90zM160 300h70q68 0 99 36.5t31 133.5q0 68 -13.5 106t-42.5 53.5t-74 15.5h-70v-345zM221 -210v150h90l-30 -150
h-60z" />
    <glyph glyph-name="uni0157" unicode="&#x157;" horiz-adv-x="335" 
d="M65 0v500h76l5 -40h5q18 15 48.5 27.5t75.5 12.5h50v-75h-100q-19 0 -37 -4.5t-33 -15.5v-405h-90zM65 -210v150h90l-30 -150h-60z" />
    <glyph glyph-name="Rcaron" unicode="&#x158;" horiz-adv-x="505" 
d="M70 0v690q38 11 76.5 15.5t83.5 4.5q80 0 128.5 -22.5t70 -75t21.5 -142.5q0 -67 -11.5 -111.5t-33.5 -70t-55 -38.5l120 -250h-100l-110 230h-100v-230h-90zM160 300h70q68 0 99 36.5t31 133.5q0 68 -13.5 106t-42.5 53.5t-74 15.5h-70v-345zM187 760l-75 130h60l62 -74
l63 74h60l-75 -130h-95z" />
    <glyph glyph-name="rcaron" unicode="&#x159;" horiz-adv-x="335" 
d="M65 0v500h76l5 -40h5q18 15 48.5 27.5t75.5 12.5h50v-75h-100q-19 0 -37 -4.5t-33 -15.5v-405h-90zM145 560l-75 130h60l62 -74l63 74h60l-75 -130h-95z" />
    <glyph glyph-name="Sacute" unicode="&#x15a;" horiz-adv-x="445" 
d="M185 -10q-45 0 -86 6.5t-64 13.5v45h130q86 0 120.5 30.5t34.5 94.5q0 44 -20.5 69.5t-53 42.5t-69 33t-69 39.5t-53 62.5t-20.5 103q0 90 46.5 135t143.5 45q45 0 86.5 -6t63.5 -14v-45h-130q-60 0 -90 -29.5t-30 -85.5q0 -46 20.5 -73.5t53 -45t69 -34t69 -39t53 -60
t20.5 -98.5q0 -97 -50.5 -143.5t-174.5 -46.5zM192 760l35 130h95l-70 -130h-60z" />
    <glyph glyph-name="sacute" unicode="&#x15b;" horiz-adv-x="395" 
d="M160 -10q-30 0 -63.5 6.5t-56.5 13.5v40h100q68 0 99 17.5t31 62.5q0 30 -17 48t-43.5 30.5t-57 24t-57 29t-43.5 45.5t-17 73q0 75 45 102.5t135 27.5q30 0 64 -6t56 -14v-40h-100q-52 0 -81 -16t-29 -54q0 -30 17 -48t43.5 -30.5t57 -24t57 -29t43.5 -45.5t17 -73
q0 -55 -21 -85.5t-65 -42.5t-114 -12zM167 560l35 130h95l-70 -130h-60z" />
    <glyph glyph-name="Scedilla" unicode="&#x15e;" horiz-adv-x="445" 
d="M185 -10q-45 0 -86 6.5t-64 13.5v45h130q86 0 120.5 30.5t34.5 94.5q0 44 -20.5 69.5t-53 42.5t-69 33t-69 39.5t-53 62.5t-20.5 103q0 90 46.5 135t143.5 45q45 0 86.5 -6t63.5 -14v-45h-130q-60 0 -90 -29.5t-30 -85.5q0 -46 20.5 -73.5t53 -45t69 -34t69 -39t53 -60
t20.5 -98.5q0 -97 -50.5 -143.5t-174.5 -46.5zM250 -165q-34 0 -54.5 7.5l-20.5 7.5v30h65q15 0 22.5 7t7.5 18t-7.5 18t-22.5 7h-55v85h50v-40h15q41 0 63 -20t22 -50t-22 -50t-63 -20z" />
    <glyph glyph-name="scedilla" unicode="&#x15f;" horiz-adv-x="395" 
d="M160 -10q-30 0 -63.5 6.5t-56.5 13.5v40h100q68 0 99 17.5t31 62.5q0 30 -17 48t-43.5 30.5t-57 24t-57 29t-43.5 45.5t-17 73q0 75 45 102.5t135 27.5q30 0 64 -6t56 -14v-40h-100q-52 0 -81 -16t-29 -54q0 -30 17 -48t43.5 -30.5t57 -24t57 -29t43.5 -45.5t17 -73
q0 -55 -21 -85.5t-65 -42.5t-114 -12zM231 -165q-34 0 -54.5 7.5l-20.5 7.5v30h65q15 0 22.5 7t7.5 18t-7.5 18t-22.5 7h-55v85h50v-40h15q41 0 63 -20t22 -50t-22 -50t-63 -20z" />
    <glyph glyph-name="Scaron" unicode="&#x160;" horiz-adv-x="445" 
d="M185 -10q-45 0 -86 6.5t-64 13.5v45h130q86 0 120.5 30.5t34.5 94.5q0 44 -20.5 69.5t-53 42.5t-69 33t-69 39.5t-53 62.5t-20.5 103q0 90 46.5 135t143.5 45q45 0 86.5 -6t63.5 -14v-45h-130q-60 0 -90 -29.5t-30 -85.5q0 -46 20.5 -73.5t53 -45t69 -34t69 -39t53 -60
t20.5 -98.5q0 -97 -50.5 -143.5t-174.5 -46.5zM174 760l-75 130h60l62 -74l63 74h60l-75 -130h-95z" />
    <glyph glyph-name="scaron" unicode="&#x161;" horiz-adv-x="395" 
d="M160 -10q-30 0 -63.5 6.5t-56.5 13.5v40h100q68 0 99 17.5t31 62.5q0 30 -17 48t-43.5 30.5t-57 24t-57 29t-43.5 45.5t-17 73q0 75 45 102.5t135 27.5q30 0 64 -6t56 -14v-40h-100q-52 0 -81 -16t-29 -54q0 -30 17 -48t43.5 -30.5t57 -24t57 -29t43.5 -45.5t17 -73
q0 -55 -21 -85.5t-65 -42.5t-114 -12zM149 560l-75 130h60l62 -74l63 74h60l-75 -130h-95z" />
    <glyph glyph-name="Utilde" unicode="&#x168;" horiz-adv-x="520" 
d="M260 -10q-70 0 -114 23t-65 77.5t-21 149.5v460h90v-460q0 -75 13 -116t37.5 -57.5t59.5 -16.5t59.5 16.5t37.5 57.5t13 116v460h90v-460q0 -95 -21 -149.5t-65 -77.5t-114 -23zM300 765q-19 0 -31 9t-20.5 21t-16.5 21t-17 9q-25 0 -25 -45h-50q0 56 19.5 80.5
t60.5 24.5q19 0 31 -9t20.5 -21t16.5 -21t17 -9q25 0 25 45h50q0 -56 -19.5 -80.5t-60.5 -24.5z" />
    <glyph glyph-name="utilde" unicode="&#x169;" horiz-adv-x="475" 
d="M220 -10q-47 0 -82 12.5t-54 45t-19 92.5v360h90v-360q0 -52 27 -71t68 -19q19 0 39 6.5t31 13.5v430h90v-500h-75l-5 30h-5q-19 -19 -47 -29.5t-58 -10.5zM278 565q-19 0 -31 9t-20.5 21t-16.5 21t-17 9q-25 0 -25 -45h-50q0 56 19.5 80.5t60.5 24.5q19 0 31 -9
t20.5 -21t16.5 -21t17 -9q25 0 25 45h50q0 -56 -19.5 -80.5t-60.5 -24.5z" />
    <glyph glyph-name="Umacron" unicode="&#x16a;" horiz-adv-x="520" 
d="M260 -10q-70 0 -114 23t-65 77.5t-21 149.5v460h90v-460q0 -75 13 -116t37.5 -57.5t59.5 -16.5t59.5 16.5t37.5 57.5t13 116v460h90v-460q0 -95 -21 -149.5t-65 -77.5t-114 -23zM148 795v60h230v-60h-230z" />
    <glyph glyph-name="umacron" unicode="&#x16b;" horiz-adv-x="475" 
d="M220 -10q-47 0 -82 12.5t-54 45t-19 92.5v360h90v-360q0 -52 27 -71t68 -19q19 0 39 6.5t31 13.5v430h90v-500h-75l-5 30h-5q-19 -19 -47 -29.5t-58 -10.5zM123 610v60h230v-60h-230z" />
    <glyph glyph-name="Uogonek" unicode="&#x172;" horiz-adv-x="520" 
d="M260 -10q-70 0 -114 23t-65 77.5t-21 149.5v460h90v-460q0 -75 13 -116t37.5 -57.5t59.5 -16.5t59.5 16.5t37.5 57.5t13 116v460h90v-460q0 -95 -21 -149.5t-65 -77.5t-114 -23zM299 -160q-41 0 -63 21.5t-22 58.5q0 23 6.5 41t12.5 28.5l6 10.5h40v-45q0 -34 13 -46.5
t47 -12.5h35v-41l-20.5 -7.5t-54.5 -7.5z" />
    <glyph glyph-name="uogonek" unicode="&#x173;" horiz-adv-x="475" 
d="M220 -10q-47 0 -82 12.5t-54 45t-19 92.5v360h90v-360q0 -52 27 -71t68 -19q19 0 39 6.5t31 13.5v430h90v-500h-75l-5 30h-5q-19 -19 -47 -29.5t-58 -10.5zM406 -160q-41 0 -63 21.5t-22 58.5q0 23 6.5 41t12.5 28.5l6 10.5h40v-45q0 -34 13 -46.5t47 -12.5h35v-41
l-20.5 -7.5t-54.5 -7.5z" />
    <glyph glyph-name="Ydieresis" unicode="&#x178;" 
d="M180 0v220l-170 480h90l125 -355l125 355h90l-170 -480v-220h-90zM260 780v110h90v-110h-90zM100 780v110h90v-110h-90z" />
    <glyph glyph-name="Zacute" unicode="&#x179;" horiz-adv-x="405" 
d="M20 0v65l260 565h-255v70h360v-65l-260 -565h255v-70h-360zM175 760l35 130h95l-70 -130h-60z" />
    <glyph glyph-name="zacute" unicode="&#x17a;" horiz-adv-x="370" 
d="M20 0v60l225 375h-215v65h320v-60l-224 -375h219v-65h-325zM151 560l35 130h95l-70 -130h-60z" />
    <glyph glyph-name="Zdotaccent" unicode="&#x17b;" horiz-adv-x="405" 
d="M20 0v65l260 565h-255v70h360v-65l-260 -565h255v-70h-360zM160 770v110h90v-110h-90z" />
    <glyph glyph-name="zdotaccent" unicode="&#x17c;" horiz-adv-x="370" 
d="M20 0v60l225 375h-215v65h320v-60l-224 -375h219v-65h-325zM150 570v110h90v-110h-90z" />
    <glyph glyph-name="Zcaron" unicode="&#x17d;" horiz-adv-x="405" 
d="M20 0v65l260 565h-255v70h360v-65l-260 -565h255v-70h-360zM157 760l-75 130h60l62 -74l63 74h60l-75 -130h-95z" />
    <glyph glyph-name="zcaron" unicode="&#x17e;" horiz-adv-x="370" 
d="M20 0v60l225 375h-215v65h320v-60l-224 -375h219v-65h-325zM133 560l-75 130h60l62 -74l63 74h60l-75 -130h-95z" />
    <glyph glyph-name="florin" unicode="&#x192;" horiz-adv-x="330" 
d="M40 -210q-15 0 -36 3t-41 7.5t-33 9.5v40h90q15 0 31.5 9t27.5 32.5t11 68.5v465h-60v65h60v40q0 70 18.5 106.5t50 50t71.5 13.5q15 0 36 -3t41.5 -7.5t32.5 -9.5v-40h-90q-15 0 -31.5 -8.5t-27.5 -32.5t-11 -69v-40h140v-45q-22 -7 -56 -13.5t-64 -6.5h-20v-465
q0 -70 -18.5 -106.5t-50 -50t-71.5 -13.5z" />
    <glyph glyph-name="Ohorn" unicode="&#x1a0;" horiz-adv-x="530" 
d="M265 -10q-67 0 -115.5 31.5t-74 110t-25.5 218.5t25.5 218.5t74 110t115.5 31.5q68 0 116 -31.5t73.5 -110t25.5 -218.5t-25.5 -218.5t-73.5 -110t-116 -31.5zM265 50q24 0 46.5 13.5t40.5 46.5t28 91.5t10 148.5t-10 148.5t-28 91.5t-40.5 46.5t-46.5 13.5t-46.5 -13.5
t-40.5 -46.5t-28 -91.5t-10 -148.5t10 -148.5t28 -91.5t40.5 -46.5t46.5 -13.5zM320 650v50q35 0 57 15.5t22 58.5h74q0 -49 -22 -76t-56.5 -37.5t-74.5 -10.5z" />
    <glyph glyph-name="ohorn" unicode="&#x1a1;" horiz-adv-x="460" 
d="M230 -10q-60 0 -101 24.5t-62.5 81.5t-21.5 154q0 98 21.5 154.5t62.5 81t101 24.5t101.5 -24.5t62.5 -81t21 -154.5q0 -97 -21 -154t-62.5 -81.5t-101.5 -24.5zM230 45q25 0 46.5 18t35 62.5t13.5 124.5t-13.5 124.5t-35 62.5t-46.5 18t-46.5 -18t-35 -62.5
t-13.5 -124.5t13.5 -124.5t35 -62.5t46.5 -18zM291 450v50q35 0 57 15.5t22 58.5h74q0 -49 -22 -76t-56.5 -37.5t-74.5 -10.5z" />
    <glyph glyph-name="Uhorn" unicode="&#x1af;" horiz-adv-x="520" 
d="M260 -10q-70 0 -114 23t-65 77.5t-21 149.5v460h90v-460q0 -75 13 -116t37.5 -57.5t59.5 -16.5t59.5 16.5t37.5 57.5t13 116v460h90v-460q0 -95 -21 -149.5t-65 -77.5t-114 -23zM405 650v50q35 0 57 15.5t22 58.5h74q0 -49 -22 -76t-56.5 -37.5t-74.5 -10.5z" />
    <glyph glyph-name="uhorn" unicode="&#x1b0;" horiz-adv-x="475" 
d="M220 -10q-47 0 -82 12.5t-54 45t-19 92.5v360h90v-360q0 -52 27 -71t68 -19q19 0 39 6.5t31 13.5v430h90v-500h-75l-5 30h-5q-19 -19 -47 -29.5t-58 -10.5zM378 450v50q35 0 57 15.5t22 58.5h74q0 -49 -22 -76t-56.5 -37.5t-74.5 -10.5z" />
    <glyph glyph-name="uni0237" unicode="&#x237;" horiz-adv-x="240" 
d="M30 -210q-22 0 -46.5 6.5t-43.5 13.5v40h70q15 0 31.5 9t27.5 32.5t11 68.5v540h90v-540q0 -70 -18.5 -106.5t-50 -50t-71.5 -13.5z" />
    <glyph glyph-name="uni02BC" unicode="&#x2bc;" horiz-adv-x="130" 
d="M0 425v220h95l-30 -220h-65z" />
    <glyph glyph-name="circumflex" unicode="&#x2c6;" horiz-adv-x="285" 
d="M20 550l75 130h95l75 -130h-60l-63 74l-62 -74h-60z" />
    <glyph glyph-name="caron" unicode="&#x2c7;" horiz-adv-x="285" 
d="M95 560l-75 130h60l62 -74l63 74h60l-75 -130h-95z" />
    <glyph glyph-name="dotaccent" unicode="&#x2d9;" horiz-adv-x="130" 
d="M20 570v110h90v-110h-90z" />
    <glyph glyph-name="ring" unicode="&#x2da;" horiz-adv-x="270" 
d="M135 540q-37 0 -61 21.5t-24 58.5q0 38 24 59t61 21q38 0 61.5 -21t23.5 -59q0 -37 -23.5 -58.5t-61.5 -21.5zM135 585q15 0 25 8t10 27t-10 27t-25 8t-25 -8t-10 -27t10 -27t25 -8z" />
    <glyph glyph-name="ogonek" unicode="&#x2db;" horiz-adv-x="200" 
d="M105 -160q-41 0 -63 21.5t-22 58.5q0 23 6.5 41t12.5 28.5l6 10.5h40v-45q0 -34 13 -46.5t47 -12.5h35v-41l-20.5 -7.5t-54.5 -7.5z" />
    <glyph glyph-name="tilde" unicode="&#x2dc;" horiz-adv-x="280" 
d="M180 565q-19 0 -31 9t-20.5 21t-16.5 21t-17 9q-25 0 -25 -45h-50q0 56 19.5 80.5t60.5 24.5q19 0 31 -9t20.5 -21t16.5 -21t17 -9q25 0 25 45h50q0 -56 -19.5 -80.5t-60.5 -24.5z" />
    <glyph glyph-name="gravecomb" unicode="&#x300;" horiz-adv-x="0" 
d="M85 560l-63 130h95l28 -130h-60z" />
    <glyph glyph-name="acutecomb" unicode="&#x301;" horiz-adv-x="0" 
d="M20 560l35 130h95l-70 -130h-60z" />
    <glyph glyph-name="uni0302" unicode="&#x302;" horiz-adv-x="0" 
d="M20 550l75 130h95l75 -130h-60l-63 74l-62 -74h-60z" />
    <glyph glyph-name="tildecomb" unicode="&#x303;" horiz-adv-x="0" 
d="M180 565q-19 0 -31 9t-20.5 21t-16.5 21t-17 9q-25 0 -25 -45h-50q0 56 19.5 80.5t60.5 24.5q19 0 31 -9t20.5 -21t16.5 -21t17 -9q25 0 25 45h50q0 -56 -19.5 -80.5t-60.5 -24.5z" />
    <glyph glyph-name="uni0304" unicode="&#x304;" horiz-adv-x="0" 
d="M20 610v60h230v-60h-230z" />
    <glyph glyph-name="uni0306" unicode="&#x306;" horiz-adv-x="0" 
d="M230 570q-49 0 -82.5 20t-52.5 50l40 40q15 -15 40 -27.5t55 -12.5t55 12.5t40 27.5l40 -40q-19 -30 -52.5 -50t-82.5 -20z" />
    <glyph glyph-name="uni0307" unicode="&#x307;" horiz-adv-x="0" 
d="M20 570v110h90v-110h-90z" />
    <glyph glyph-name="uni0308" unicode="&#x308;" horiz-adv-x="0" 
d="M180 580v110h90v-110h-90zM20 580v110h90v-110h-90z" />
    <glyph glyph-name="hookabovecomb" unicode="&#x309;" horiz-adv-x="0" 
d="M148 549q0 21 11 33.5t22 22.5t11 23q0 37 -42 37h-50v47q8 3 24 5.5t33 2.5q23 0 44.5 -7.5t35.5 -26.5t14 -54q0 -18 -13 -31t-26 -24.5t-13 -27.5h-51z" />
    <glyph glyph-name="uni030A" unicode="&#x30a;" horiz-adv-x="0" 
d="M135 540q-37 0 -61 21.5t-24 58.5q0 38 24 59t61 21q38 0 61.5 -21t23.5 -59q0 -37 -23.5 -58.5t-61.5 -21.5zM135 585q15 0 25 8t10 27t-10 27t-25 8t-25 -8t-10 -27t10 -27t25 -8z" />
    <glyph glyph-name="uni030B" unicode="&#x30b;" horiz-adv-x="0" 
d="M152 560l55 126h90l-90 -126h-55zM37 560l55 126h90l-90 -126h-55z" />
    <glyph glyph-name="uni030C" unicode="&#x30c;" horiz-adv-x="0" 
d="M95 560l-75 130h60l62 -74l63 74h60l-75 -130h-95z" />
    <glyph glyph-name="uni0312" unicode="&#x312;" horiz-adv-x="0" 
d="M43 570l30 150h60v-150h-90z" />
    <glyph glyph-name="uni031B" unicode="&#x31b;" horiz-adv-x="0" 
d="M100 450v50q35 0 57 15.5t22 58.5h74q0 -49 -22 -76t-56.5 -37.5t-74.5 -10.5z" />
    <glyph glyph-name="dotbelowcomb" unicode="&#x323;" horiz-adv-x="0" 
d="M48 -156v91h74v-91h-74z" />
    <glyph glyph-name="uni0326" unicode="&#x326;" horiz-adv-x="0" 
d="M43 -210v150h90l-30 -150h-60z" />
    <glyph glyph-name="uni0327" unicode="&#x327;" horiz-adv-x="0" 
d="M95 -165q-34 0 -54.5 7.5l-20.5 7.5v30h65q15 0 22.5 7t7.5 18t-7.5 18t-22.5 7h-55v85h50v-40h15q41 0 63 -20t22 -50t-22 -50t-63 -20z" />
    <glyph glyph-name="uni0328" unicode="&#x328;" horiz-adv-x="0" 
d="M105 -160q-41 0 -63 21.5t-22 58.5q0 23 6.5 41t12.5 28.5l6 10.5h40v-45q0 -34 13 -46.5t47 -12.5h35v-41l-20.5 -7.5t-54.5 -7.5z" />
    <glyph glyph-name="uni0335" unicode="&#x335;" horiz-adv-x="0" 
d="M20 545v65h290v-45q-22 -7 -56 -13.5t-64 -6.5h-170z" />
    <glyph glyph-name="uni0400" unicode="&#x400;" 
d="M70 0v700h340v-70h-250v-230h220v-70h-220v-260h250v-70h-340zM218 760l-63 130h95l28 -130h-60z" />
    <glyph glyph-name="uni0401" unicode="&#x401;" 
d="M70 0v700h340v-70h-250v-230h220v-70h-220v-260h250v-70h-340zM110 770v110h90v-110h-90zM270 770v110h90v-110h-90z" />
    <glyph glyph-name="uni0402" unicode="&#x402;" horiz-adv-x="555" 
d="M370 -10q-15 0 -35 4.5t-35 15.5v40h50q30 0 50 25t20 85v85q0 64 -32 94.5t-103 30.5h-70v-370h-90v630h-125v70h360v-70h-145v-200q19 4 49.5 7t60.5 3q93 0 139 -47t46 -148v-85q0 -90 -36 -130t-104 -40z" />
    <glyph glyph-name="uni0403" unicode="&#x403;" horiz-adv-x="410" 
d="M70 0v700h320v-70h-230v-630h-90zM190 750l35 130h95l-70 -130h-60z" />
    <glyph glyph-name="uni0404" unicode="&#x404;" horiz-adv-x="435" 
d="M270 -10q-70 0 -119 31.5t-75 110t-26 218.5t25.5 218.5t72.5 110t112 31.5q45 0 86.5 -6t63.5 -14v-45h-130q-37 0 -68 -23t-50 -77.5t-22 -149.5h210v-70h-210q3 -105 21.5 -163.5t51 -82.5t77.5 -24h130v-45q-22 -7 -63.5 -13.5t-86.5 -6.5z" />
    <glyph glyph-name="uni0405" unicode="&#x405;" horiz-adv-x="445" 
d="M185 -10q-45 0 -86 6.5t-64 13.5v45h130q86 0 120.5 30.5t34.5 94.5q0 44 -20.5 69.5t-53 42.5t-69 33t-69 39.5t-53 62.5t-20.5 103q0 90 46.5 135t143.5 45q45 0 86.5 -6t63.5 -14v-45h-130q-60 0 -90 -29.5t-30 -85.5q0 -46 20.5 -73.5t53 -45t69 -34t69 -39t53 -60
t20.5 -98.5q0 -97 -50.5 -143.5t-174.5 -46.5z" />
    <glyph glyph-name="uni0406" unicode="&#x406;" horiz-adv-x="230" 
d="M70 0v700h90v-700h-90z" />
    <glyph glyph-name="uni0407" unicode="&#x407;" horiz-adv-x="230" 
d="M70 0v700h90v-700h-90zM-10 770v110h90v-110h-90zM150 770v110h90v-110h-90z" />
    <glyph glyph-name="uni0408" unicode="&#x408;" horiz-adv-x="350" 
d="M90 -10q-22 0 -46.5 6.5t-43.5 13.5v45h90q35 0 59.5 16t37.5 56.5t13 112.5v460h90v-460q0 -95 -21 -149.5t-65 -77.5t-114 -23z" />
    <glyph glyph-name="uni0409" unicode="&#x409;" horiz-adv-x="790" 
d="M60 -10q-26 0 -43 5l-17 5v45q41 0 68.5 35.5t31.5 129.5l25 490h335v-285q19 4 48.5 7t51.5 3q98 0 144 -50t46 -170q0 -116 -50 -165.5t-170 -49.5q-45 0 -83.5 4.5t-76.5 15.5v620h-158l-22 -420q-4 -80 -22.5 -128.5t-46.5 -70t-61 -21.5zM460 55h70q68 0 99 34
t31 116q0 83 -31 116.5t-99 33.5h-70v-300z" />
    <glyph glyph-name="uni040A" unicode="&#x40a;" horiz-adv-x="790" 
d="M530 -10q-45 0 -84 4.5t-76 14.5v326h-210v-335h-90v700h90v-295h210v295h90v-305q19 4 48.5 7t51.5 3q98 0 144 -48.5t46 -161.5q0 -109 -50 -157t-170 -48zM460 55h70q68 0 99 32.5t31 107.5t-31 107.5t-99 32.5h-70v-280z" />
    <glyph glyph-name="uni040B" unicode="&#x40b;" horiz-adv-x="560" 
d="M125 0v630h-125v70h360v-70h-145v-200q19 4 49.5 7t60.5 3q93 0 139 -47t46 -148v-245h-90v245q0 64 -32 94.5t-103 30.5h-70v-370h-90z" />
    <glyph glyph-name="uni040C" unicode="&#x40c;" horiz-adv-x="495" 
d="M430 -10q-45 0 -74.5 30t-40.5 90l-25 130q-10 53 -35.5 71.5t-59.5 18.5h-35v-330h-90v700h90v-300h35q26 0 49 19t36 71l25 100q15 60 44.5 90t70.5 30q26 0 43 -5l17 -5v-45q-37 0 -54.5 -17.5t-25.5 -47.5l-25 -100q-16 -62 -36 -87.5t-54 -35.5v-4q38 -10 63 -35
t37 -88l25 -130q5 -26 24 -45.5t56 -19.5v-45l-17 -5t-43 -5zM220 740l35 130h95l-70 -130h-60z" />
    <glyph glyph-name="uni040D" unicode="&#x40d;" horiz-adv-x="540" 
d="M70 0v700h90v-520h5l200 520h105v-700h-90v520h-5l-205 -520h-100zM233 760l-63 130h95l28 -130h-60z" />
    <glyph glyph-name="uni040E" unicode="&#x40e;" horiz-adv-x="460" 
d="M180 -10q-22 0 -49.5 6.5t-50.5 13.5v45h70q28 0 48.5 13.5t35.5 45t23 86.5q-58 0 -94 32t-53 88l-110 380h90l110 -380q8 -26 26 -40.5t44 -14.5l80 435h90l-100 -540q-16 -90 -54 -130t-106 -40zM230 750q-49 0 -85 20.5t-55 54.5l40 40q15 -15 40.5 -30t59.5 -15
t59.5 15t40.5 30l40 -40q-19 -34 -55 -54.5t-85 -20.5z" />
    <glyph glyph-name="uni040F" unicode="&#x40f;" horiz-adv-x="530" 
d="M235 -150l-15 150h-150v700h90v-630h210v630h90v-700h-150l-15 -150h-60z" />
    <glyph glyph-name="uni0410" unicode="&#x410;" horiz-adv-x="510" 
d="M20 0l170 700h130l170 -700h-90l-45 180h-200l-45 -180h-90zM170 250h170l-83 350h-4z" />
    <glyph glyph-name="uni0411" unicode="&#x411;" horiz-adv-x="490" 
d="M230 -10q-45 0 -83.5 4.5t-76.5 15.5v690h350v-70h-260v-205h70q80 0 128.5 -21.5t70 -70t21.5 -128.5q0 -116 -50 -165.5t-170 -49.5zM160 55h70q68 0 99 34t31 116q0 83 -31 116.5t-99 33.5h-70v-300z" />
    <glyph glyph-name="uni0412" unicode="&#x412;" horiz-adv-x="500" 
d="M230 -10q-45 0 -83.5 4.5t-76.5 15.5v680q38 11 76.5 15.5t83.5 4.5q105 0 152.5 -45.5t47.5 -139.5q0 -45 -17.5 -84t-62.5 -64v-4q60 -17 85 -66t25 -117q0 -105 -51 -152.5t-179 -47.5zM160 55h70q75 0 107.5 31.5t32.5 103.5q0 79 -32.5 112t-107.5 33h-70v-280z
M160 400h60q60 0 90 30.5t30 94.5q0 60 -30 90t-90 30h-60v-245z" />
    <glyph glyph-name="uni0413" unicode="&#x413;" horiz-adv-x="410" 
d="M70 0v700h320v-70h-230v-630h-90z" />
    <glyph glyph-name="uni0414" unicode="&#x414;" horiz-adv-x="545" 
d="M10 -150v220h50l11.5 23t23.5 69t15 113l20 425h325v-630h65v-220h-55q-11 30 -18.5 67.5t-11.5 82.5h-340q-4 -45 -11.5 -82.5t-18.5 -67.5h-55zM150 70h215v560h-148l-17 -355q-3 -67 -15.5 -113t-23.5 -69z" />
    <glyph glyph-name="uni0415" unicode="&#x415;" 
d="M70 0v700h340v-70h-250v-230h220v-70h-220v-260h250v-70h-340z" />
    <glyph glyph-name="uni0416" unicode="&#x416;" horiz-adv-x="740" 
d="M65 -10q-26 0 -43 5l-17 5v45q38 0 56.5 19.5t23.5 45.5l25 130q12 63 37.5 88t62.5 35v4q-34 10 -54 35.5t-36 87.5l-25 100q-7 30 -24.5 47.5t-55.5 17.5v45l17 5t43 5q41 0 70.5 -30t44.5 -90l25 -100q13 -52 36 -71t49 -19h25v300h90v-300h25q26 0 49 19t36 71
l25 100q15 60 44.5 90t70.5 30q26 0 43 -5l17 -5v-45q-37 0 -54.5 -17.5t-25.5 -47.5l-25 -100q-16 -62 -36 -87.5t-54 -35.5v-4q38 -10 63 -35t37 -88l25 -130q5 -26 24 -45.5t56 -19.5v-45l-17 -5t-43 -5q-45 0 -74.5 30t-40.5 90l-25 130q-10 53 -35.5 71.5t-59.5 18.5
h-25v-330h-90v330h-25q-34 0 -59.5 -18.5t-35.5 -71.5l-25 -130q-11 -60 -40.5 -90t-74.5 -30z" />
    <glyph glyph-name="uni0417" unicode="&#x417;" horiz-adv-x="425" 
d="M155 -10q-37 0 -77 6.5t-63 13.5v45h140q75 0 107.5 32t32.5 103q0 75 -32.5 107.5t-107.5 32.5h-70v70h60q68 0 99 30.5t31 94.5q0 60 -31 90t-99 30h-120v45q23 8 61.5 14t68.5 6q113 0 161.5 -45.5t48.5 -139.5q0 -60 -22.5 -96t-67.5 -57v-4q60 -17 85 -65.5
t25 -112.5q0 -105 -51 -152.5t-179 -47.5z" />
    <glyph glyph-name="uni0418" unicode="&#x418;" horiz-adv-x="540" 
d="M70 0v700h90v-520h5l200 520h105v-700h-90v520h-5l-205 -520h-100z" />
    <glyph glyph-name="uni0419" unicode="&#x419;" horiz-adv-x="540" 
d="M70 0v700h90v-520h5l200 520h105v-700h-90v520h-5l-205 -520h-100zM270 760q-49 0 -85 20.5t-55 54.5l40 40q15 -15 40.5 -30t59.5 -15t59.5 15t40.5 30l40 -40q-19 -34 -55 -54.5t-85 -20.5z" />
    <glyph glyph-name="uni041A" unicode="&#x41a;" horiz-adv-x="495" 
d="M430 -10q-45 0 -74.5 30t-40.5 90l-25 130q-10 53 -35.5 71.5t-59.5 18.5h-35v-330h-90v700h90v-300h35q26 0 49 19t36 71l25 100q15 60 44.5 90t70.5 30q26 0 43 -5l17 -5v-45q-37 0 -54.5 -17.5t-25.5 -47.5l-25 -100q-16 -62 -36 -87.5t-54 -35.5v-4q38 -10 63 -35
t37 -88l25 -130q5 -26 24 -45.5t56 -19.5v-45l-17 -5t-43 -5z" />
    <glyph glyph-name="uni041B" unicode="&#x41b;" horiz-adv-x="530" 
d="M60 -10q-26 0 -43 5l-17 5v45q41 0 68.5 35.5t31.5 129.5l25 490h335v-700h-90v630h-158l-22 -420q-4 -80 -22.5 -128.5t-46.5 -70t-61 -21.5z" />
    <glyph glyph-name="uni041C" unicode="&#x41c;" horiz-adv-x="740" 
d="M55 0l40 700h110l163 -480h4l163 480h110l40 -700h-90l-30 520h-5l-145 -430h-90l-145 430h-5l-30 -520h-90z" />
    <glyph glyph-name="uni041D" unicode="&#x41d;" horiz-adv-x="530" 
d="M70 0v700h90v-310h210v310h90v-700h-90v320h-210v-320h-90z" />
    <glyph glyph-name="uni041E" unicode="&#x41e;" horiz-adv-x="530" 
d="M265 -10q-67 0 -115.5 31.5t-74 110t-25.5 218.5t25.5 218.5t74 110t115.5 31.5q68 0 116 -31.5t73.5 -110t25.5 -218.5t-25.5 -218.5t-73.5 -110t-116 -31.5zM265 50q24 0 46.5 13.5t40.5 46.5t28 91.5t10 148.5t-10 148.5t-28 91.5t-40.5 46.5t-46.5 13.5t-46.5 -13.5
t-40.5 -46.5t-28 -91.5t-10 -148.5t10 -148.5t28 -91.5t40.5 -46.5t46.5 -13.5z" />
    <glyph glyph-name="uni041F" unicode="&#x41f;" horiz-adv-x="530" 
d="M70 0v700h390v-700h-90v630h-210v-630h-90z" />
    <glyph glyph-name="uni0420" unicode="&#x420;" horiz-adv-x="490" 
d="M70 0v690q38 11 76.5 15.5t83.5 4.5q80 0 128.5 -23t70 -77.5t21.5 -149.5q0 -97 -20.5 -153t-62.5 -79t-107 -23q-22 0 -51.5 3t-48.5 7v-215h-90zM160 275h70q45 0 74 16t42.5 56.5t13.5 112.5q0 73 -13.5 113t-42.5 56t-74 16h-70v-370z" />
    <glyph glyph-name="uni0421" unicode="&#x421;" horiz-adv-x="435" 
d="M270 -10q-70 0 -119 31.5t-75 110t-26 218.5t25.5 218.5t72.5 110t112 31.5q45 0 86.5 -6t63.5 -14v-45h-130q-40 0 -71.5 -25t-50 -88.5t-18.5 -181.5q0 -117 19 -181t52.5 -89t78.5 -25h130v-45q-22 -7 -63.5 -13.5t-86.5 -6.5z" />
    <glyph glyph-name="uni0422" unicode="&#x422;" horiz-adv-x="430" 
d="M170 0v630h-160v70h410v-70h-160v-630h-90z" />
    <glyph glyph-name="uni0423" unicode="&#x423;" horiz-adv-x="465" 
d="M176 -10q-22 0 -49.5 6.5t-50.5 13.5v45h70q27 0 47 12.5t35 44t26 88.5q-63 0 -98.5 32.5t-50.5 87.5l-105 380h90l105 -380q8 -26 26 -40.5t46 -14.5l88 435h90l-109 -540q-18 -90 -55.5 -130t-104.5 -40z" />
    <glyph glyph-name="uni0424" unicode="&#x424;" horiz-adv-x="690" 
d="M300 -20v70q-124 8 -197 84.5t-73 215.5t73 216t197 84v70h90v-70q124 -7 197 -84t73 -216t-73 -215.5t-197 -84.5v-70h-90zM300 115v470q-50 -2 -91 -29.5t-65 -79t-24 -126.5t24 -126.5t65 -78.5t91 -30zM390 115q50 3 91 30t65 78.5t24 126.5t-24 126.5t-65 79
t-91 29.5v-470z" />
    <glyph glyph-name="uni0425" unicode="&#x425;" horiz-adv-x="460" 
d="M15 0l150 360l-135 340h90l110 -280l110 280h90l-135 -340l150 -360h-90l-125 300l-125 -300h-90z" />
    <glyph glyph-name="uni0426" unicode="&#x426;" horiz-adv-x="540" 
d="M460 -150q-11 30 -18.5 67.5t-11.5 82.5h-360v700h90v-630h200v630h90v-630h65v-220h-55z" />
    <glyph glyph-name="uni0427" unicode="&#x427;" horiz-adv-x="505" 
d="M345 0v270q-19 -4 -49.5 -7t-60.5 -3q-93 0 -139 47t-46 148v245h90v-245q0 -64 32 -94.5t103 -30.5h70v370h90v-700h-90z" />
    <glyph glyph-name="uni0428" unicode="&#x428;" horiz-adv-x="750" 
d="M70 0v700h90v-630h170v630h90v-630h170v630h90v-700h-610z" />
    <glyph glyph-name="uni0429" unicode="&#x429;" horiz-adv-x="770" 
d="M690 -150q-11 30 -18.5 67.5t-11.5 82.5h-590v700h90v-630h170v630h90v-630h170v630h90v-630h65v-220h-55z" />
    <glyph glyph-name="uni042A" unicode="&#x42a;" horiz-adv-x="550" 
d="M290 -10q-45 0 -83.5 4.5t-76.5 15.5v620h-110v70h200v-285q19 4 48.5 7t51.5 3q98 0 144 -50t46 -170q0 -116 -50 -165.5t-170 -49.5zM220 55h70q68 0 99 34t31 116q0 83 -31 116.5t-99 33.5h-70v-300z" />
    <glyph glyph-name="uni042B" unicode="&#x42b;" horiz-adv-x="690" 
d="M230 -10q-45 0 -83.5 4.5t-76.5 15.5v690h90v-285q19 4 48.5 7t51.5 3q94 0 139.5 -50t45.5 -170q0 -116 -49.5 -165.5t-165.5 -49.5zM160 55h70q64 0 94.5 34t30.5 116q0 83 -30.5 116.5t-94.5 33.5h-70v-300zM530 0v700h90v-700h-90z" />
    <glyph glyph-name="uni042C" unicode="&#x42c;" horiz-adv-x="490" 
d="M230 -10q-45 0 -83.5 4.5t-76.5 15.5v690h90v-285q19 4 48.5 7t51.5 3q98 0 144 -50t46 -170q0 -116 -50 -165.5t-170 -49.5zM160 55h70q68 0 99 34t31 116q0 83 -31 116.5t-99 33.5h-70v-300z" />
    <glyph glyph-name="uni042D" unicode="&#x42d;" horiz-adv-x="435" 
d="M165 -10q-45 0 -86 6.5t-64 13.5v45h130q45 0 77.5 24t51.5 82.5t21 163.5h-210v70h210q-2 95 -21.5 149.5t-50 77.5t-68.5 23h-130v45q23 8 64 14t86 6q65 0 112 -31.5t72.5 -110t25.5 -218.5t-26 -218.5t-75 -110t-119 -31.5z" />
    <glyph glyph-name="uni042E" unicode="&#x42e;" horiz-adv-x="705" 
d="M445 -10q-62 0 -106.5 29.5t-70 101.5t-33.5 199h-75v-320h-90v700h90v-310h75q8 123 33.5 192.5t70 98.5t106.5 29q65 0 112 -31.5t72.5 -110t25.5 -218.5t-25.5 -218.5t-72.5 -110t-112 -31.5zM445 50q23 0 44 13.5t38.5 46.5t27.5 91.5t10 148.5t-10 148.5t-27.5 91.5
t-38.5 46.5t-44 13.5q-22 0 -43.5 -13.5t-39 -46.5t-27.5 -91.5t-10 -148.5t10 -148.5t27.5 -91.5t39 -46.5t43.5 -13.5z" />
    <glyph glyph-name="uni042F" unicode="&#x42f;" horiz-adv-x="500" 
d="M70 -10q-22 0 -41 5l-19 5v45q38 0 55.5 17.5t24.5 47.5l20 85q11 49 30 76t45 35v4q-32 5 -63.5 27t-51.5 62.5t-20 100.5q0 113 50 161.5t170 48.5q45 0 84 -4.5t76 -15.5v-690h-90v285h-40q-30 0 -56 -19t-39 -71l-20 -85q-15 -60 -44.5 -90t-70.5 -30zM270 355h70
v290h-70q-67 0 -98.5 -33t-31.5 -112t31.5 -112t98.5 -33z" />
    <glyph glyph-name="uni0430" unicode="&#x430;" 
d="M195 -10q-45 0 -78.5 13t-52.5 47.5t-19 99.5q0 63 19 96.5t52.5 46t78.5 12.5q23 0 50.5 -3t49.5 -7v45q0 68 -28.5 89t-81.5 21h-100v40q23 8 56.5 14t63.5 6q60 0 100 -13.5t60 -50t20 -106.5v-340h-75l-5 30h-5q-19 -19 -47 -29.5t-58 -10.5zM225 50q19 0 39 6.5
t31 13.5v175h-70q-25 0 -45.5 -8t-32.5 -28.5t-12 -58.5q0 -40 12 -61.5t32.5 -30t45.5 -8.5z" />
    <glyph glyph-name="uni0431" unicode="&#x431;" horiz-adv-x="475" 
d="M240 -10q-62 0 -103.5 22.5t-61.5 76.5t-20 146v165q0 115 24 180t79 93t147 32l110 5l5 -40q-26 -11 -57.5 -21t-72.5 -14q-75 -7 -110 -46.5t-35 -133.5q23 11 47 18t58 7q58 0 96.5 -22.5t58.5 -76t20 -146.5q0 -92 -20 -146t-61 -76.5t-104 -22.5zM240 45
q28 0 49 16.5t33.5 57.5t12.5 116q0 73 -13 113t-38.5 56t-63.5 16q-22 0 -43 -6t-32 -14v-165q0 -75 12.5 -116t34 -57.5t48.5 -16.5z" />
    <glyph glyph-name="uni0432" unicode="&#x432;" 
d="M225 -10q-45 0 -83.5 4.5t-76.5 15.5v480q38 11 75.5 15.5t74.5 4.5q86 0 130.5 -28.5t44.5 -111.5q0 -32 -10 -52.5t-26 -32t-34 -18.5v-4q23 -6 43.5 -21t33.5 -39.5t13 -62.5q0 -60 -20 -92.5t-61 -45t-104 -12.5zM155 50h70q45 0 70 19t25 71q0 53 -25 71.5t-70 18.5
h-70v-180zM155 290h60q38 0 61.5 17.5t23.5 62.5t-23.5 62.5t-61.5 17.5h-60v-160z" />
    <glyph glyph-name="uni0433" unicode="&#x433;" horiz-adv-x="365" 
d="M65 0v500h290v-65h-200v-435h-90z" />
    <glyph glyph-name="uni0434" unicode="&#x434;" horiz-adv-x="495" 
d="M10 -145v210h45q11 17 26.5 51t18.5 94l15 290h295v-435h60v-210h-55q-11 30 -18.5 69t-11.5 76h-290q-4 -37 -11.5 -76t-18.5 -69h-55zM145 65h175v370h-118l-12 -225q-3 -60 -18.5 -94t-26.5 -51z" />
    <glyph glyph-name="uni0435" unicode="&#x435;" horiz-adv-x="440" 
d="M255 -10q-75 0 -121 23.5t-67.5 80t-21.5 156.5t20 156.5t59 80t96 23.5q58 0 96.5 -23.5t58.5 -80t20 -156.5v-30h-260q0 -97 32.5 -133.5t107.5 -36.5h100v-40q-22 -7 -56 -13.5t-64 -6.5zM135 280h170q0 68 -12 106t-31 53.5t-42 15.5q-22 0 -41.5 -15.5t-31.5 -53.5
t-12 -106z" />
    <glyph glyph-name="uni0436" unicode="&#x436;" horiz-adv-x="642" 
d="M65 -10q-22 0 -38.5 5l-16.5 5v40q30 0 43 10t17 25l25 95q13 49 33.5 68t47.5 25v4q-22 6 -38.5 24.5t-32.5 63.5l-25 70q-5 15 -17.5 25t-42.5 10v40l18 5t37 5q41 0 62.5 -20.5t37.5 -64.5l25 -70q12 -34 26 -47t30 -13h20v205h90v-205h20q16 0 30 13t26 47l25 70
q16 44 37.5 64.5t62.5 20.5q19 0 37 -5l18 -5v-40q-30 0 -42.5 -10t-17.5 -25l-25 -70q-16 -45 -32 -63.5t-39 -24.5v-4q27 -6 47.5 -25t33.5 -68l25 -95q4 -15 17 -25t43 -10v-40l-16 -5t-39 -5q-41 0 -65 22t-35 63l-25 95q-16 60 -66 60h-20v-230h-90v230h-20
q-49 0 -66 -60l-25 -95q-11 -41 -35 -63t-65 -22z" />
    <glyph glyph-name="uni0437" unicode="&#x437;" horiz-adv-x="380" 
d="M135 -10q-30 0 -63.5 6.5t-56.5 13.5v40h120q56 0 85.5 19t29.5 71q0 53 -25.5 71.5t-59.5 18.5h-85v60h75q34 0 59.5 17.5t25.5 62.5t-29.5 62.5t-85.5 17.5h-100v40q23 8 56.5 14t63.5 6q94 0 139.5 -28.5t45.5 -111.5q0 -32 -11.5 -52.5t-30 -32t-38.5 -18.5v-4
q23 -6 43.5 -21t33.5 -39.5t13 -62.5q0 -60 -21 -92.5t-66 -45t-118 -12.5z" />
    <glyph glyph-name="uni0438" unicode="&#x438;" horiz-adv-x="480" 
d="M65 0v500h90v-340h5l150 340h105v-500h-90v350h-5l-160 -350h-95z" />
    <glyph glyph-name="uni0439" unicode="&#x439;" horiz-adv-x="480" 
d="M65 0v500h90v-340h5l150 340h105v-500h-90v350h-5l-160 -350h-95zM235 560q-49 0 -82.5 20t-52.5 50l40 40q15 -15 40 -27.5t55 -12.5t55 12.5t40 27.5l40 -40q-19 -30 -52.5 -50t-82.5 -20z" />
    <glyph glyph-name="uni043A" unicode="&#x43a;" horiz-adv-x="445" 
d="M380 -10q-41 0 -65 22t-35 63l-25 95q-16 60 -66 60h-34v-230h-90v500h90v-205h34q16 0 30 13t26 47l25 70q16 44 37.5 64.5t62.5 20.5q19 0 37 -5l18 -5v-40q-30 0 -42.5 -10t-17.5 -25l-25 -70q-16 -45 -32 -63.5t-39 -24.5v-4q27 -6 47.5 -25t33.5 -68l25 -95
q4 -15 17 -25t43 -10v-40l-16 -5t-39 -5z" />
    <glyph glyph-name="uni043B" unicode="&#x43b;" horiz-adv-x="471" 
d="M55 -10q-22 0 -38 5t-17 5v40q30 0 53 28t27 92l20 340h306v-500h-90v435h-130l-16 -275q-5 -90 -37.5 -130t-77.5 -40z" />
    <glyph glyph-name="uni043C" unicode="&#x43c;" horiz-adv-x="630" 
d="M55 0l35 500h105l118 -315h4l118 315h105l35 -500h-85l-25 355h-5l-105 -280h-80l-105 280h-5l-25 -355h-85z" />
    <glyph glyph-name="uni043D" unicode="&#x43d;" horiz-adv-x="475" 
d="M65 0v500h90v-215h165v215h90v-500h-90v220h-165v-220h-90z" />
    <glyph glyph-name="uni043E" unicode="&#x43e;" horiz-adv-x="460" 
d="M230 -10q-60 0 -101 24.5t-62.5 81.5t-21.5 154q0 98 21.5 154.5t62.5 81t101 24.5t101.5 -24.5t62.5 -81t21 -154.5q0 -97 -21 -154t-62.5 -81.5t-101.5 -24.5zM230 45q25 0 46.5 18t35 62.5t13.5 124.5t-13.5 124.5t-35 62.5t-46.5 18t-46.5 -18t-35 -62.5
t-13.5 -124.5t13.5 -124.5t35 -62.5t46.5 -18z" />
    <glyph glyph-name="uni043F" unicode="&#x43f;" horiz-adv-x="475" 
d="M65 0v500h345v-500h-90v435h-165v-435h-90z" />
    <glyph glyph-name="uni0440" unicode="&#x440;" horiz-adv-x="465" 
d="M65 -200v700h75l5 -30h5q19 19 47 29.5t58 10.5q53 0 89.5 -23.5t56 -80t19.5 -156.5t-19.5 -156.5t-56 -80t-89.5 -23.5q-30 0 -53.5 7t-46.5 18v-215h-90zM225 50q33 0 56.5 16.5t36 60t12.5 123.5t-12.5 123.5t-36 60t-56.5 16.5q-19 0 -39 -6t-31 -14v-360
q11 -7 31 -13.5t39 -6.5z" />
    <glyph glyph-name="uni0441" unicode="&#x441;" horiz-adv-x="375" 
d="M240 -10q-67 0 -110.5 23.5t-64 80t-20.5 156.5t20 156.5t61.5 80t103.5 23.5q30 0 64 -6t56 -14v-40h-100q-37 0 -63 -16.5t-39 -60t-13 -123.5t13.5 -123.5t41.5 -60t70 -16.5h100v-40q-22 -7 -56 -13.5t-64 -6.5z" />
    <glyph glyph-name="uni0442" unicode="&#x442;" horiz-adv-x="370" 
d="M140 0v435h-130v65h350v-65h-130v-435h-90z" />
    <glyph glyph-name="uni0443" unicode="&#x443;" horiz-adv-x="445" 
d="M155 -210q-22 0 -46.5 6.5t-43.5 13.5v40h70q25 0 42.5 11t30 41.5t22.5 87.5q-49 0 -78 32t-42 88l-90 390h90l90 -390q7 -30 18 -42.5t24 -12.5l83 445h90l-95 -510q-19 -105 -58 -152.5t-107 -47.5z" />
    <glyph glyph-name="uni0444" unicode="&#x444;" horiz-adv-x="600" 
d="M255 -200v195q-101 8 -158 69.5t-57 185.5t57 186t158 69v195h90v-195q101 -7 158 -69t57 -186t-57 -185.5t-158 -69.5v-195h-90zM255 55v390q-37 -2 -65.5 -21.5t-44 -61.5t-15.5 -112t15.5 -112t44 -61t65.5 -22zM345 55q38 3 66 22t43.5 61t15.5 112t-15.5 112
t-43.5 61.5t-66 21.5v-390z" />
    <glyph glyph-name="uni0445" unicode="&#x445;" horiz-adv-x="400" 
d="M15 0l125 255l-121 245h90l91 -185l91 185h90l-121 -245l125 -255h-90l-95 195l-95 -195h-90z" />
    <glyph glyph-name="uni0446" unicode="&#x446;" horiz-adv-x="490" 
d="M410 -145q-11 30 -18.5 69t-11.5 76h-315v500h90v-435h160v435h90v-435h60v-210h-55z" />
    <glyph glyph-name="uni0447" unicode="&#x447;" horiz-adv-x="455" 
d="M300 0v190q-19 -4 -50 -7t-65 -3q-40 0 -71.5 12.5t-50 44t-18.5 88.5v175h90v-175q0 -49 27.5 -67t72.5 -18h65v260h90v-500h-90z" />
    <glyph glyph-name="uni0448" unicode="&#x448;" horiz-adv-x="670" 
d="M65 0v500h90v-435h135v435h90v-435h135v435h90v-500h-540z" />
    <glyph glyph-name="uni0449" unicode="&#x449;" horiz-adv-x="690" 
d="M610 -145q-11 30 -18.5 69t-11.5 76h-515v500h90v-435h135v435h90v-435h135v435h90v-435h60v-210h-55z" />
    <glyph glyph-name="uni044A" unicode="&#x44a;" horiz-adv-x="505" 
d="M280 -10q-45 0 -83.5 4.5t-76.5 15.5v425h-100v65h190v-195q23 4 46.5 7t53.5 3q48 0 82.5 -13t53.5 -48.5t19 -103.5q0 -65 -20 -99.5t-61 -47.5t-104 -13zM210 50h70q45 0 70 20t25 80t-25 80t-70 20h-70v-200z" />
    <glyph glyph-name="uni044B" unicode="&#x44b;" horiz-adv-x="630" 
d="M225 -10q-45 0 -83.5 4.5t-76.5 15.5v490h90v-195q23 4 46.5 7t53.5 3q45 0 78.5 -13t52.5 -48.5t19 -103.5q0 -65 -20 -99.5t-60 -47.5t-100 -13zM155 50h70q28 0 48 8.5t31 30t11 61.5t-11 61.5t-31 30t-48 8.5h-70v-200zM475 0v500h90v-500h-90z" />
    <glyph glyph-name="uni044C" unicode="&#x44c;" 
d="M225 -10q-45 0 -83.5 4.5t-76.5 15.5v490h90v-195q23 4 46.5 7t53.5 3q48 0 82.5 -13t53.5 -48.5t19 -103.5q0 -65 -20 -99.5t-61 -47.5t-104 -13zM155 50h70q45 0 70 20t25 80t-25 80t-70 20h-70v-200z" />
    <glyph glyph-name="uni044D" unicode="&#x44d;" horiz-adv-x="375" 
d="M135 -10q-30 0 -63.5 6.5t-56.5 13.5v40h100q43 0 69.5 15.5t40 54t15.5 105.5h-155v65h155q-4 86 -31.5 123t-83.5 37h-100v40q23 8 56.5 14t63.5 6q63 0 104 -23.5t61 -80t20 -156.5t-20.5 -156.5t-63.5 -80t-111 -23.5z" />
    <glyph glyph-name="uni044E" unicode="&#x44e;" horiz-adv-x="625" 
d="M400 -10q-82 0 -127 53t-53 177h-65v-220h-90v500h90v-210h65q8 116 53 168t127 52q60 0 100 -24.5t60 -81t20 -154.5q0 -97 -20 -154t-60 -81.5t-100 -24.5zM400 45q25 0 45.5 18t32.5 62.5t12 124.5t-12 124.5t-32.5 62.5t-45.5 18t-45.5 -18t-32.5 -62.5t-12 -124.5
t12 -124.5t32.5 -62.5t45.5 -18z" />
    <glyph glyph-name="uni044F" unicode="&#x44f;" horiz-adv-x="445" 
d="M65 -10q-19 0 -37 5l-18 5v40q30 0 42.5 10t17.5 25l25 70q12 34 27 48t34 20v4q-33 2 -60.5 19.5t-44 48t-16.5 70.5q0 63 22.5 96.5t64 46t98.5 12.5q45 0 84 -4.5t76 -15.5v-490h-90v195h-34q-47 0 -66 -50l-25 -70q-16 -43 -37.5 -64t-62.5 -21zM220 260h70v190h-70
q-45 0 -70 -19.5t-25 -75.5t25 -75.5t70 -19.5z" />
    <glyph glyph-name="uni0450" unicode="&#x450;" horiz-adv-x="440" 
d="M255 -10q-75 0 -121 23.5t-67.5 80t-21.5 156.5t20 156.5t59 80t96 23.5q58 0 96.5 -23.5t58.5 -80t20 -156.5v-30h-260q0 -97 32.5 -133.5t107.5 -36.5h100v-40q-22 -7 -56 -13.5t-64 -6.5zM135 280h170q0 68 -12 106t-31 53.5t-42 15.5q-22 0 -41.5 -15.5t-31.5 -53.5
t-12 -106zM183 560l-63 130h95l28 -130h-60z" />
    <glyph glyph-name="uni0451" unicode="&#x451;" horiz-adv-x="440" 
d="M255 -10q-75 0 -121 23.5t-67.5 80t-21.5 156.5t20 156.5t59 80t96 23.5q58 0 96.5 -23.5t58.5 -80t20 -156.5v-30h-260q0 -97 32.5 -133.5t107.5 -36.5h100v-40q-22 -7 -56 -13.5t-64 -6.5zM135 280h170q0 68 -12 106t-31 53.5t-42 15.5q-22 0 -41.5 -15.5t-31.5 -53.5
t-12 -106zM95 570v110h90v-110h-90zM255 570v110h90v-110h-90z" />
    <glyph glyph-name="uni0452" unicode="&#x452;" horiz-adv-x="475" 
d="M300 -10q-19 0 -34.5 4.5t-30.5 15.5v40h40q30 0 45 20t15 80v180q0 53 -27 71.5t-68 18.5q-19 0 -39 -6t-31 -14v-400h-90v545h-60v65h60v90h90v-90h140v-45q-22 -7 -56 -13.5t-64 -6.5h-20v-90q23 11 49.5 18t60.5 7q43 0 75.5 -12.5t51 -45t18.5 -92.5v-180
q0 -90 -30.5 -125t-94.5 -35z" />
    <glyph glyph-name="uni0453" unicode="&#x453;" horiz-adv-x="365" 
d="M65 0v500h290v-65h-200v-435h-90zM175 560l35 130h95l-70 -130h-60z" />
    <glyph glyph-name="uni0454" unicode="&#x454;" horiz-adv-x="375" 
d="M240 -10q-67 0 -110.5 23.5t-64 80t-20.5 156.5t20 156.5t61.5 80t103.5 23.5q30 0 64 -6t56 -14v-40h-100q-56 0 -83.5 -37t-31.5 -123h155v-65h-155q3 -67 16 -105.5t40 -54t69 -15.5h100v-40q-22 -7 -56 -13.5t-64 -6.5z" />
    <glyph glyph-name="uni0455" unicode="&#x455;" horiz-adv-x="395" 
d="M160 -10q-30 0 -63.5 6.5t-56.5 13.5v40h100q68 0 99 17.5t31 62.5q0 30 -17 48t-43.5 30.5t-57 24t-57 29t-43.5 45.5t-17 73q0 75 45 102.5t135 27.5q30 0 64 -6t56 -14v-40h-100q-52 0 -81 -16t-29 -54q0 -30 17 -48t43.5 -30.5t57 -24t57 -29t43.5 -45.5t17 -73
q0 -55 -21 -85.5t-65 -42.5t-114 -12z" />
    <glyph glyph-name="uni0456" unicode="&#x456;" horiz-adv-x="220" 
d="M65 0v500h90v-500h-90zM65 570v110h90v-110h-90z" />
    <glyph glyph-name="uni0457" unicode="&#x457;" horiz-adv-x="220" 
d="M65 0v500h90v-500h-90zM-15 570v110h90v-110h-90zM145 570v110h90v-110h-90z" />
    <glyph glyph-name="uni0458" unicode="&#x458;" horiz-adv-x="240" 
d="M30 -210q-22 0 -46.5 6.5t-43.5 13.5v40h70q15 0 31.5 9t27.5 32.5t11 68.5v540h90v-540q0 -70 -18.5 -106.5t-50 -50t-71.5 -13.5zM80 570v110h90v-110h-90z" />
    <glyph glyph-name="uni0459" unicode="&#x459;" horiz-adv-x="700" 
d="M55 -10q-22 0 -38 5t-17 5v40q30 0 53 28t27 92l20 340h305v-195q23 4 46.5 7t53.5 3q48 0 82.5 -13t53.5 -48.5t19 -103.5q0 -65 -20 -99.5t-61 -47.5t-104 -13q-45 0 -83.5 4.5t-76.5 15.5v425h-129l-16 -275q-5 -90 -37.5 -130t-77.5 -40zM405 50h70q45 0 70 20t25 80
t-25 80t-70 20h-70v-200z" />
    <glyph glyph-name="uni045A" unicode="&#x45a;" horiz-adv-x="705" 
d="M480 -10q-45 0 -83.5 4.5t-76.5 15.5v220h-165v-230h-90v500h90v-205h165v205h90v-215q23 4 46.5 7t53.5 3q48 0 82.5 -12.5t53.5 -46t19 -96.5q0 -60 -20 -92.5t-61 -45t-104 -12.5zM410 50h70q45 0 70 19t25 71q0 53 -25 71.5t-70 18.5h-70v-180z" />
    <glyph glyph-name="uni045B" unicode="&#x45b;" horiz-adv-x="490" 
d="M80 0v545h-60v65h60v90h90v-90h140v-45q-22 -7 -56 -13.5t-64 -6.5h-20v-90q23 11 49.5 18t60.5 7q43 0 75.5 -12.5t51 -45t18.5 -92.5v-330h-90v330q0 53 -27 71.5t-68 18.5q-19 0 -39 -6t-31 -14v-400h-90z" />
    <glyph glyph-name="uni045C" unicode="&#x45c;" horiz-adv-x="445" 
d="M380 -10q-41 0 -65 22t-35 63l-25 95q-16 60 -66 60h-34v-230h-90v500h90v-205h34q16 0 30 13t26 47l25 70q16 44 37.5 64.5t62.5 20.5q19 0 37 -5l18 -5v-40q-30 0 -42.5 -10t-17.5 -25l-25 -70q-16 -45 -32 -63.5t-39 -24.5v-4q27 -6 47.5 -25t33.5 -68l25 -95
q4 -15 17 -25t43 -10v-40l-16 -5t-39 -5zM195 560l35 130h95l-70 -130h-60z" />
    <glyph glyph-name="uni045D" unicode="&#x45d;" horiz-adv-x="480" 
d="M65 0v500h90v-340h5l150 340h105v-500h-90v350h-5l-160 -350h-95zM203 560l-63 130h95l28 -130h-60z" />
    <glyph glyph-name="uni045E" unicode="&#x45e;" horiz-adv-x="445" 
d="M155 -210q-22 0 -46.5 6.5t-43.5 13.5v40h70q25 0 42.5 11t30 41.5t22.5 87.5q-49 0 -78 32t-42 88l-90 390h90l90 -390q7 -30 18 -42.5t24 -12.5l83 445h90l-95 -510q-19 -105 -58 -152.5t-107 -47.5zM225 560q-49 0 -82.5 20t-52.5 50l40 40q15 -15 40 -27.5t55 -12.5
t55 12.5t40 27.5l40 -40q-19 -30 -52.5 -50t-82.5 -20z" />
    <glyph glyph-name="uni045F" unicode="&#x45f;" horiz-adv-x="475" 
d="M207 -140l-15 140h-127v500h90v-435h165v435h90v-500h-128l-15 -140h-60z" />
    <glyph glyph-name="uni0462" unicode="&#x462;" horiz-adv-x="530" 
d="M25 545v65h325v-45q-22 -7 -56 -13.5t-64 -6.5h-205zM270 -10q-45 0 -83.5 4.5t-76.5 15.5v690h90v-285q19 4 48.5 7t51.5 3q98 0 144 -50t46 -170q0 -116 -50 -165.5t-170 -49.5zM200 55h70q68 0 99 34t31 116q0 83 -31 116.5t-99 33.5h-70v-300z" />
    <glyph glyph-name="uni0463" unicode="&#x463;" horiz-adv-x="480" 
d="M255 -10q-45 0 -83.5 4.5t-76.5 15.5v690h90v-395q23 4 46.5 7t53.5 3q48 0 82.5 -13t53.5 -48.5t19 -103.5q0 -65 -20 -99.5t-61 -47.5t-104 -13zM185 50h70q45 0 70 20t25 80t-25 80t-70 20h-70v-200zM10 485v65h330v-45q-22 -7 -56 -13.5t-64 -6.5h-210z" />
    <glyph glyph-name="uni046A" unicode="&#x46a;" horiz-adv-x="726" 
d="M58 -10q-26 0 -43 5l-17 5v45q38 0 56.5 19.5t23.5 45.5l25 130q17 82 66.5 121t151.5 39h84q102 0 152 -38.5t66 -121.5l25 -130q5 -26 24 -45.5t56 -19.5v-45l-17 -5t-43 -5q-45 0 -74.5 30t-40.5 90l-25 130q-10 53 -35.5 71.5t-59.5 18.5h-25v-330h-90v330h-25
q-34 0 -59.5 -18.5t-35.5 -71.5l-25 -130q-11 -60 -40.5 -90t-74.5 -30zM243 375l-213 287v38h75l237 -325h-99zM91 630v70h546v-70h-546zM385 375l236 325h73v-38l-213 -287h-96z" />
    <glyph glyph-name="uni046B" unicode="&#x46b;" horiz-adv-x="632" 
d="M60 -10q-22 0 -38.5 5l-16.5 5v40q30 0 43 10t17 25l25 95q11 42 32.5 70t59 41.5t95.5 13.5h78q59 0 96 -13.5t58.5 -41t32.5 -70.5l25 -95q4 -15 17 -25t43 -10v-40l-16 -5t-39 -5q-41 0 -65 22t-35 63l-25 95q-16 60 -66 60h-20v-230h-90v230h-20q-49 0 -66 -60
l-25 -95q-11 -41 -35 -63t-65 -22zM208 273l-174 190v37h564v-37l-174 -190h-96l170 192l13 -30h-388l14 30l170 -192h-99z" />
    <glyph glyph-name="uni0472" unicode="&#x472;" horiz-adv-x="530" 
d="M265 -10q-67 0 -115.5 31.5t-74 110t-25.5 218.5t25.5 218.5t74 110t115.5 31.5q68 0 116 -31.5t73.5 -110t25.5 -218.5t-25.5 -218.5t-73.5 -110t-116 -31.5zM265 50q24 0 46.5 13.5t40.5 46.5t28 91.5t10 148.5t-10 148.5t-28 91.5t-40.5 46.5t-46.5 13.5t-46.5 -13.5
t-40.5 -46.5t-28 -91.5t-10 -148.5t10 -148.5t28 -91.5t40.5 -46.5t46.5 -13.5zM120 317v65h290v-45q-22 -7 -56 -13.5t-64 -6.5h-170z" />
    <glyph glyph-name="uni0473" unicode="&#x473;" horiz-adv-x="460" 
d="M230 -10q-60 0 -101 24.5t-62.5 81.5t-21.5 154q0 98 21.5 154.5t62.5 81t101 24.5t101.5 -24.5t62.5 -81t21 -154.5q0 -97 -21 -154t-62.5 -81.5t-101.5 -24.5zM230 45q25 0 46.5 18t35 62.5t13.5 124.5t-13.5 124.5t-35 62.5t-46.5 18t-46.5 -18t-35 -62.5
t-13.5 -124.5t13.5 -124.5t35 -62.5t46.5 -18zM85 217v65h290v-45q-22 -7 -56 -13.5t-64 -6.5h-170z" />
    <glyph glyph-name="uni0474" unicode="&#x474;" horiz-adv-x="502" 
d="M180 0l-160 700h90l133 -605h4l106 483q16 72 48.5 102t70.5 30q26 0 43 -5l17 -5v-45q-31 0 -56 -19.5t-36 -67.5l-130 -568h-130z" />
    <glyph glyph-name="uni0475" unicode="&#x475;" horiz-adv-x="440" 
d="M150 0l-135 500h85l113 -415h4l89 327q14 53 42 75.5t62 22.5q23 0 39 -5l16 -5v-40q-27 0 -48 -16t-32 -54l-105 -390h-130z" />
    <glyph glyph-name="uni0490" unicode="&#x490;" horiz-adv-x="410" 
d="M70 0v700h248l7 85h65v-155h-230v-630h-90z" />
    <glyph glyph-name="uni0491" unicode="&#x491;" horiz-adv-x="365" 
d="M65 0v500h217l8 90h65v-155h-200v-435h-90z" />
    <glyph glyph-name="uni0492" unicode="&#x492;" horiz-adv-x="410" 
d="M70 0v700h320v-70h-230v-630h-90zM18 317v65h290v-45q-22 -7 -56 -13.5t-64 -6.5h-170z" />
    <glyph glyph-name="uni0493" unicode="&#x493;" horiz-adv-x="365" 
d="M65 0v500h290v-65h-200v-435h-90zM7 217v65h290v-45q-22 -7 -56 -13.5t-64 -6.5h-170z" />
    <glyph glyph-name="uni0494" unicode="&#x494;" horiz-adv-x="500" 
d="M315 -140q-15 0 -35 4.5t-35 15.5v40h50q30 0 50 25t20 85v215q0 64 -32 94.5t-103 30.5h-70v60q19 4 49.5 7t60.5 3q93 0 139 -47t46 -148v-215q0 -90 -36 -130t-104 -40zM70 0v700h320v-70h-230v-630h-90z" />
    <glyph glyph-name="uni0495" unicode="&#x495;" horiz-adv-x="440" 
d="M265 -90q-19 0 -34.5 4.5t-30.5 15.5v40h40q30 0 45 20t15 80v60q0 48 -23 72t-78 24q-13 0 -29 -1.5t-35 -4.5v45q23 7 49.5 11t60.5 4q43 0 75.5 -12.5t51 -45t18.5 -92.5v-60q0 -90 -30.5 -125t-94.5 -35zM65 0v500h290v-65h-200v-435h-90z" />
    <glyph glyph-name="uni0496" unicode="&#x496;" horiz-adv-x="730" 
d="M65 -10q-26 0 -43 5l-17 5v45q38 0 56.5 19.5t23.5 45.5l25 130q12 63 37.5 88t62.5 35v4q-34 10 -54 35.5t-36 87.5l-25 100q-7 30 -24.5 47.5t-55.5 17.5v45l17 5t43 5q41 0 70.5 -30t44.5 -90l25 -100q13 -52 36 -71t49 -19h25v300h90v-300h25q26 0 49 19t36 71
l25 100q15 60 44.5 90t70.5 30q26 0 43 -5l17 -5v-45q-37 0 -54.5 -17.5t-25.5 -47.5l-25 -100q-16 -62 -36 -87.5t-54 -35.5v-4q38 -10 63 -35t37 -88l23 -120q5 -25 25 -37.5t57 -12.5v-70h-17h-43q-45 0 -74.5 27.5t-40.5 82.5l-25 130q-10 53 -35.5 71.5t-59.5 18.5h-25
v-330h-90v330h-25q-34 0 -59.5 -18.5t-35.5 -71.5l-25 -130q-11 -60 -40.5 -90t-74.5 -30zM695 -150q-11 30 -18.5 70t-11.5 85l35 65h50v-220h-55z" />
    <glyph glyph-name="uni0497" unicode="&#x497;" horiz-adv-x="652" 
d="M65 -10q-22 0 -38.5 5l-16.5 5v40q30 0 43 10t17 25l25 95q13 49 33.5 68t47.5 25v4q-22 6 -38.5 24.5t-32.5 63.5l-25 70q-5 15 -17.5 25t-42.5 10v40l18 5t37 5q41 0 62.5 -20.5t37.5 -64.5l25 -70q12 -34 26 -47t30 -13h20v205h90v-205h20q16 0 30 13t26 47l25 70
q16 44 37.5 64.5t62.5 20.5q19 0 37 -5l18 -5v-40q-30 0 -42.5 -10t-17.5 -25l-25 -70q-16 -45 -32 -63.5t-39 -24.5v-4q27 -6 47.5 -25t33.5 -68l19 -72q5 -18 20.5 -25.5t45.5 -7.5v-65h-19.5h-45.5q-37 0 -58 19t-32 56l-25 95q-16 60 -66 60h-20v-230h-90v230h-20
q-49 0 -66 -60l-25 -95q-11 -41 -35 -63t-65 -22zM587 -145q-11 30 -18.5 70.5t-11.5 77.5l65 62h20v-210h-55z" />
    <glyph glyph-name="uni0498" unicode="&#x498;" horiz-adv-x="425" 
d="M180 -145q-11 30 -18.5 69t-11.5 76l85 35v-180h-55zM155 -10q-37 0 -77 6.5t-63 13.5v45h140q75 0 107.5 32t32.5 103q0 75 -32.5 107.5t-107.5 32.5h-70v70h60q68 0 99 30.5t31 94.5q0 60 -31 90t-99 30h-120v45q23 8 61.5 14t68.5 6q113 0 161.5 -45.5t48.5 -139.5
q0 -60 -22.5 -96t-67.5 -57v-4q60 -17 85 -65.5t25 -112.5q0 -105 -51 -152.5t-179 -47.5z" />
    <glyph glyph-name="uni0499" unicode="&#x499;" horiz-adv-x="380" 
d="M150 -145q-11 30 -18.5 69t-11.5 76l85 35v-180h-55zM135 -10q-30 0 -63.5 6.5t-56.5 13.5v40h120q56 0 85.5 19t29.5 71q0 53 -25.5 71.5t-59.5 18.5h-85v60h75q34 0 59.5 17.5t25.5 62.5t-29.5 62.5t-85.5 17.5h-100v40q23 8 56.5 14t63.5 6q94 0 139.5 -28.5
t45.5 -111.5q0 -32 -11.5 -52.5t-30 -32t-38.5 -18.5v-4q23 -6 43.5 -21t33.5 -39.5t13 -62.5q0 -60 -21 -92.5t-66 -45t-118 -12.5z" />
    <glyph glyph-name="uni049A" unicode="&#x49a;" horiz-adv-x="485" 
d="M70 0v700h90v-300h35q26 0 49 19t36 71l25 100q15 60 44.5 90t70.5 30q26 0 43 -5l17 -5v-45q-37 0 -54.5 -17.5t-25.5 -47.5l-25 -100q-16 -62 -36 -87.5t-54 -35.5v-4q38 -10 63 -35t37 -88l23 -120q5 -25 25 -37.5t57 -12.5v-70h-17h-43q-94 0 -115 110l-25 130
q-10 53 -35.5 71.5t-59.5 18.5h-35v-330h-90zM450 -150q-11 30 -18.5 70t-11.5 85l35 65h50v-220h-55z" />
    <glyph glyph-name="uni049B" unicode="&#x49b;" horiz-adv-x="455" 
d="M65 0v500h90v-205h34q16 0 30 13t26 47l25 70q16 44 37.5 64.5t62.5 20.5q19 0 37 -5l18 -5v-40q-30 0 -42.5 -10t-17.5 -25l-25 -70q-16 -45 -32 -63.5t-39 -24.5v-4q27 -6 47.5 -25t33.5 -68l19 -72q5 -19 20.5 -26t45.5 -7v-65h-19.5h-45.5q-37 0 -58.5 19t-31.5 56
l-25 95q-16 60 -66 60h-34v-230h-90zM390 -145q-11 30 -18.5 70.5t-11.5 77.5l65 62h20v-210h-55z" />
    <glyph glyph-name="uni049C" unicode="&#x49c;" horiz-adv-x="495" 
d="M450 -10q-45 0 -74.5 30t-40.5 90l-25 130q-10 53 -35.5 71.5t-59.5 18.5h-55v-330h-90v700h90v-300h55q26 0 49 19t36 71l25 100q15 60 44.5 90t70.5 30q26 0 43 -5l17 -5v-45q-37 0 -54.5 -17.5t-25.5 -47.5l-25 -100q-16 -62 -36 -87.5t-54 -35.5v-4q38 -10 63 -35
t37 -88l25 -130q5 -26 24 -45.5t56 -19.5v-45l-17 -5t-43 -5zM203 218v290h44v-290h-44z" />
    <glyph glyph-name="uni049D" unicode="&#x49d;" horiz-adv-x="445" 
d="M400 -10q-41 0 -65 22t-35 63l-25 95q-16 60 -66 60h-54v-230h-90v500h90v-205h54q16 0 30 13t26 47l25 70q16 44 37.5 64.5t62.5 20.5q19 0 37 -5l18 -5v-40q-30 0 -42.5 -10t-17.5 -25l-25 -70q-16 -45 -32 -63.5t-39 -24.5v-4q27 -6 47.5 -25t33.5 -68l25 -95
q4 -15 17 -25t43 -10v-40l-16 -5t-39 -5zM191 134v270h44v-270h-44z" />
    <glyph glyph-name="uni04A0" unicode="&#x4a0;" horiz-adv-x="555" 
d="M20 630v70h200l-90 -70h-110zM490 -10q-45 0 -74.5 30t-40.5 90l-25 130q-10 53 -35.5 71.5t-59.5 18.5h-35v-330h-90v700h90v-300h35q26 0 49 19t36 71l25 100q15 60 44.5 90t70.5 30q26 0 43 -5l17 -5v-45q-37 0 -54.5 -17.5t-25.5 -47.5l-25 -100q-16 -62 -36 -87.5
t-54 -35.5v-4q38 -10 63 -35t37 -88l25 -130q5 -26 24 -45.5t56 -19.5v-45l-17 -5t-43 -5z" />
    <glyph glyph-name="uni04A1" unicode="&#x4a1;" horiz-adv-x="500" 
d="M20 435v65h190l-90 -65h-100zM435 -10q-41 0 -65 22t-35 63l-25 95q-16 60 -66 60h-34v-230h-90v500h90v-205h34q16 0 30 13t26 47l25 70q16 44 37.5 64.5t62.5 20.5q19 0 37 -5l18 -5v-40q-30 0 -42.5 -10t-17.5 -25l-25 -70q-16 -45 -32 -63.5t-39 -24.5v-4
q27 -6 47.5 -25t33.5 -68l25 -95q4 -15 17 -25t43 -10v-40l-16 -5t-39 -5z" />
    <glyph glyph-name="uni04A2" unicode="&#x4a2;" horiz-adv-x="530" 
d="M70 0v700h90v-310h210v310h90v-700h-90v320h-210v-320h-90zM470 -150q-11 30 -18.5 67.5t-11.5 82.5h-70v70h155v-220h-55z" />
    <glyph glyph-name="uni04A3" unicode="&#x4a3;" horiz-adv-x="475" 
d="M65 0v500h90v-215h165v215h90v-500h-90v220h-165v-220h-90zM415 -145q-11 30 -18.5 69t-11.5 76h-65v65h150v-210h-55z" />
    <glyph glyph-name="uni04A4" unicode="&#x4a4;" horiz-adv-x="690" 
d="M70 0v700h90v-310h210v310h300v-70h-210v-630h-90v320h-210v-320h-90z" />
    <glyph glyph-name="uni04A5" unicode="&#x4a5;" horiz-adv-x="600" 
d="M65 0v500h90v-215h165v215h270v-65h-180v-435h-90v220h-165v-220h-90z" />
    <glyph glyph-name="uni04AA" unicode="&#x4aa;" horiz-adv-x="435" 
d="M260 -145q-11 30 -18.5 69t-11.5 76l85 35v-180h-55zM270 -10q-70 0 -119 31.5t-75 110t-26 218.5t25.5 218.5t72.5 110t112 31.5q45 0 86.5 -6t63.5 -14v-45h-130q-40 0 -71.5 -25t-50 -88.5t-18.5 -181.5q0 -117 19 -181t52.5 -89t78.5 -25h130v-45q-22 -7 -63.5 -13.5
t-86.5 -6.5z" />
    <glyph glyph-name="uni04AB" unicode="&#x4ab;" horiz-adv-x="375" 
d="M220 -145q-11 30 -18.5 69t-11.5 76l85 35v-180h-55zM240 -10q-67 0 -110.5 23.5t-64 80t-20.5 156.5t20 156.5t61.5 80t103.5 23.5q30 0 64 -6t56 -14v-40h-100q-37 0 -63 -16.5t-39 -60t-13 -123.5t13.5 -123.5t41.5 -60t70 -16.5h100v-40q-22 -7 -56 -13.5t-64 -6.5z
" />
    <glyph glyph-name="Ustraitcy" unicode="&#x4ae;" 
d="M180 0v220l-170 480h90l125 -355l125 355h90l-170 -480v-220h-90z" />
    <glyph glyph-name="ustraitcy" unicode="&#x4af;" horiz-adv-x="430" 
d="M171 -200v176l-156 524h85l113 -385h4l113 385h85l-157 -526l3 -174h-90z" />
    <glyph glyph-name="Ustraitstrokecy" unicode="&#x4b0;" 
d="M180 0v220l-170 480h90l125 -355l125 355h90l-170 -480v-220h-90zM80 207v65h290v-45q-22 -7 -56 -13.5t-64 -6.5h-170z" />
    <glyph glyph-name="ustraitstrokecy" unicode="&#x4b1;" horiz-adv-x="430" 
d="M171 -200v176l-156 524h85l113 -385h4l113 385h85l-157 -526l3 -174h-90zM70 -43v65h290v-45q-22 -7 -56 -13.5t-64 -6.5h-170z" />
    <glyph glyph-name="uni04B6" unicode="&#x4b6;" horiz-adv-x="505" 
d="M345 0v270q-19 -4 -49.5 -7t-60.5 -3q-93 0 -139 47t-46 148v245h90v-245q0 -64 32 -94.5t103 -30.5h70v370h90v-700h-90zM445 -150q-11 30 -18.5 67.5t-11.5 82.5h-70v70h155v-220h-55z" />
    <glyph glyph-name="uni04B7" unicode="&#x4b7;" horiz-adv-x="455" 
d="M300 0v190q-19 -4 -50 -7t-65 -3q-40 0 -71.5 12.5t-50 44t-18.5 88.5v175h90v-175q0 -49 27.5 -67t72.5 -18h65v260h90v-500h-90zM395 -145q-11 30 -18.5 69t-11.5 76h-65v65h150v-210h-55z" />
    <glyph glyph-name="uni04B8" unicode="&#x4b8;" horiz-adv-x="505" 
d="M345 0v270q-19 -4 -49.5 -7t-60.5 -3q-93 0 -139 47t-46 148v245h90v-245q0 -64 32 -94.5t103 -30.5h70v370h90v-700h-90zM231 148v290h44v-290h-44z" />
    <glyph glyph-name="uni04B9" unicode="&#x4b9;" horiz-adv-x="455" 
d="M300 0v190q-19 -4 -50 -7t-65 -3q-40 0 -71.5 12.5t-50 44t-18.5 88.5v175h90v-175q0 -49 27.5 -67t72.5 -18h65v260h90v-500h-90zM198 75v270h44v-270h-44z" />
    <glyph glyph-name="uni04BA" unicode="&#x4ba;" horiz-adv-x="505" 
d="M160 700v-270q19 4 49.5 7t60.5 3q93 0 139 -47t46 -148v-245h-90v245q0 64 -32 94.5t-103 30.5h-70v-370h-90v700h90z" />
    <glyph glyph-name="uni04BB" unicode="&#x4bb;" horiz-adv-x="480" 
d="M70 0v700h90v-215q23 11 49.5 18t60.5 7q43 0 75.5 -12.5t51 -45t18.5 -92.5v-360h-90v360q0 53 -27 71.5t-68 18.5q-19 0 -39 -6t-31 -14v-430h-90z" />
    <glyph glyph-name="uni04C0" unicode="&#x4c0;" horiz-adv-x="230" 
d="M70 0v700h90v-700h-90z" />
    <glyph glyph-name="uni04C1" unicode="&#x4c1;" horiz-adv-x="740" 
d="M65 -10q-26 0 -43 5l-17 5v45q38 0 56.5 19.5t23.5 45.5l25 130q12 63 37.5 88t62.5 35v4q-34 10 -54 35.5t-36 87.5l-25 100q-7 30 -24.5 47.5t-55.5 17.5v45l17 5t43 5q41 0 70.5 -30t44.5 -90l25 -100q13 -52 36 -71t49 -19h25v300h90v-300h25q26 0 49 19t36 71
l25 100q15 60 44.5 90t70.5 30q26 0 43 -5l17 -5v-45q-37 0 -54.5 -17.5t-25.5 -47.5l-25 -100q-16 -62 -36 -87.5t-54 -35.5v-4q38 -10 63 -35t37 -88l25 -130q5 -26 24 -45.5t56 -19.5v-45l-17 -5t-43 -5q-45 0 -74.5 30t-40.5 90l-25 130q-10 53 -35.5 71.5t-59.5 18.5
h-25v-330h-90v330h-25q-34 0 -59.5 -18.5t-35.5 -71.5l-25 -130q-11 -60 -40.5 -90t-74.5 -30zM370 760q-49 0 -85 20.5t-55 54.5l40 40q15 -15 40.5 -30t59.5 -15t59.5 15t40.5 30l40 -40q-19 -34 -55 -54.5t-85 -20.5z" />
    <glyph glyph-name="uni04C2" unicode="&#x4c2;" horiz-adv-x="642" 
d="M65 -10q-22 0 -38.5 5l-16.5 5v40q30 0 43 10t17 25l25 95q13 49 33.5 68t47.5 25v4q-22 6 -38.5 24.5t-32.5 63.5l-25 70q-5 15 -17.5 25t-42.5 10v40l18 5t37 5q41 0 62.5 -20.5t37.5 -64.5l25 -70q12 -34 26 -47t30 -13h20v205h90v-205h20q16 0 30 13t26 47l25 70
q16 44 37.5 64.5t62.5 20.5q19 0 37 -5l18 -5v-40q-30 0 -42.5 -10t-17.5 -25l-25 -70q-16 -45 -32 -63.5t-39 -24.5v-4q27 -6 47.5 -25t33.5 -68l25 -95q4 -15 17 -25t43 -10v-40l-16 -5t-39 -5q-41 0 -65 22t-35 63l-25 95q-16 60 -66 60h-20v-230h-90v230h-20
q-49 0 -66 -60l-25 -95q-11 -41 -35 -63t-65 -22zM321 560q-49 0 -82.5 20t-52.5 50l40 40q15 -15 40 -27.5t55 -12.5t55 12.5t40 27.5l40 -40q-19 -30 -52.5 -50t-82.5 -20z" />
    <glyph glyph-name="uni04CB" unicode="&#x4cb;" horiz-adv-x="505" 
d="M335 -150h-55v220h155v-70h-70q-4 -45 -11.5 -82.5t-18.5 -67.5zM345 0v270q-19 -4 -49.5 -7t-60.5 -3q-93 0 -139 47t-46 148v245h90v-245q0 -64 32 -94.5t103 -30.5h70v370h90v-700h-90z" />
    <glyph glyph-name="uni04CC" unicode="&#x4cc;" horiz-adv-x="455" 
d="M295 -145h-55v210h150v-65h-65q-4 -37 -11.5 -76t-18.5 -69zM300 0v190q-19 -4 -50 -7t-65 -3q-40 0 -71.5 12.5t-50 44t-18.5 88.5v175h90v-175q0 -49 27.5 -67t72.5 -18h65v260h90v-500h-90z" />
    <glyph glyph-name="uni04CF" unicode="&#x4cf;" horiz-adv-x="230" 
d="M70 0v700h90v-700h-90z" />
    <glyph glyph-name="uni04D0" unicode="&#x4d0;" horiz-adv-x="510" 
d="M20 0l170 700h130l170 -700h-90l-45 180h-200l-45 -180h-90zM170 250h170l-83 350h-4zM255 760q-49 0 -85 20.5t-55 54.5l40 40q15 -15 40.5 -30t59.5 -15t59.5 15t40.5 30l40 -40q-19 -34 -55 -54.5t-85 -20.5z" />
    <glyph glyph-name="uni04D1" unicode="&#x4d1;" 
d="M195 -10q-45 0 -78.5 13t-52.5 47.5t-19 99.5q0 63 19 96.5t52.5 46t78.5 12.5q23 0 50.5 -3t49.5 -7v45q0 68 -28.5 89t-81.5 21h-100v40q23 8 56.5 14t63.5 6q60 0 100 -13.5t60 -50t20 -106.5v-340h-75l-5 30h-5q-19 -19 -47 -29.5t-58 -10.5zM225 50q19 0 39 6.5
t31 13.5v175h-70q-25 0 -45.5 -8t-32.5 -28.5t-12 -58.5q0 -40 12 -61.5t32.5 -30t45.5 -8.5zM225 560q-49 0 -82.5 20t-52.5 50l40 40q15 -15 40 -27.5t55 -12.5t55 12.5t40 27.5l40 -40q-19 -30 -52.5 -50t-82.5 -20z" />
    <glyph glyph-name="uni04D2" unicode="&#x4d2;" horiz-adv-x="510" 
d="M20 0l170 700h130l170 -700h-90l-45 180h-200l-45 -180h-90zM170 250h170l-83 350h-4zM290 780v110h90v-110h-90zM130 780v110h90v-110h-90z" />
    <glyph glyph-name="uni04D3" unicode="&#x4d3;" 
d="M195 -10q-45 0 -78.5 13t-52.5 47.5t-19 99.5q0 63 19 96.5t52.5 46t78.5 12.5q23 0 50.5 -3t49.5 -7v45q0 68 -28.5 89t-81.5 21h-100v40q23 8 56.5 14t63.5 6q60 0 100 -13.5t60 -50t20 -106.5v-340h-75l-5 30h-5q-19 -19 -47 -29.5t-58 -10.5zM225 50q19 0 39 6.5
t31 13.5v175h-70q-25 0 -45.5 -8t-32.5 -28.5t-12 -58.5q0 -40 12 -61.5t32.5 -30t45.5 -8.5zM260 580v110h90v-110h-90zM100 580v110h90v-110h-90z" />
    <glyph glyph-name="uni04D4" unicode="&#x4d4;" horiz-adv-x="731" 
d="M0 0l240 700h451v-70h-250v-230h220v-70h-220v-260h250v-70h-340v180h-199l-62 -180h-90zM176 250h175v380h-45z" />
    <glyph glyph-name="uni04D5" unicode="&#x4d5;" horiz-adv-x="690" 
d="M195 -10q-45 0 -78.5 12.5t-52.5 45t-19 92.5q0 58 19 89t52.5 43.5t78.5 12.5q23 0 50.5 -3t49.5 -7v65q0 68 -28.5 89t-81.5 21h-100v40q23 8 56.5 14t63.5 6q45 0 83 -18t57 -52q19 34 51.5 52t73.5 18q58 0 96.5 -23t58.5 -78.5t20 -153.5v-30h-260v-15
q2 -91 34.5 -125.5t105.5 -34.5h100v-40q-22 -7 -56 -13.5t-64 -6.5q-60 0 -97 16.5t-63 53.5q-22 -34 -59.5 -52t-90.5 -18zM215 50q25 0 43 7.5t27.5 15l9.5 7.5v145h-70q-37 0 -63.5 -18t-26.5 -67q0 -52 25 -71t55 -19zM385 285h170q0 65 -12 102t-31 52.5t-42 15.5
q-22 0 -41.5 -15t-31.5 -52t-12 -103z" />
    <glyph glyph-name="uni04D6" unicode="&#x4d6;" 
d="M70 0v700h340v-70h-250v-230h220v-70h-220v-260h250v-70h-340zM255 760q-49 0 -85 20.5t-55 54.5l40 40q15 -15 40.5 -30t59.5 -15t59.5 15t40.5 30l40 -40q-19 -34 -55 -54.5t-85 -20.5z" />
    <glyph glyph-name="uni04D7" unicode="&#x4d7;" horiz-adv-x="440" 
d="M255 -10q-75 0 -121 23.5t-67.5 80t-21.5 156.5t20 156.5t59 80t96 23.5q58 0 96.5 -23.5t58.5 -80t20 -156.5v-30h-260q0 -97 32.5 -133.5t107.5 -36.5h100v-40q-22 -7 -56 -13.5t-64 -6.5zM135 280h170q0 68 -12 106t-31 53.5t-42 15.5q-22 0 -41.5 -15.5t-31.5 -53.5
t-12 -106zM220 560q-49 0 -82.5 20t-52.5 50l40 40q15 -15 40 -27.5t55 -12.5t55 12.5t40 27.5l40 -40q-19 -30 -52.5 -50t-82.5 -20z" />
    <glyph glyph-name="uni04D8" unicode="&#x4d8;" horiz-adv-x="527" 
d="M256 -10q-72 0 -117.5 32t-67 110t-21.5 214v42h339q0 97 -19 153t-60.5 80t-109.5 24h-111v45q34 11 69.5 15t69.5 4q93 0 147.5 -33t78 -112t23.5 -218q0 -136 -25 -214t-74 -110t-122 -32zM256 50q35 0 65.5 24t49 83t18.5 163h-253q2 -104 18.5 -163t43.5 -83t58 -24
z" />
    <glyph glyph-name="uni04D9" unicode="&#x4d9;" horiz-adv-x="440" 
d="M185 510q75 0 121 -23.5t67.5 -80t21.5 -156.5t-20 -156.5t-58.5 -80t-96.5 -23.5q-57 0 -96 23.5t-59 80t-20 156.5v30h260q0 98 -32.5 134t-107.5 36h-100v40q23 8 56.5 14t63.5 6zM305 220h-170q0 -67 12 -105.5t31.5 -54t41.5 -15.5q23 0 42 15.5t31 54t12 105.5z
" />
    <glyph glyph-name="uni04DC" unicode="&#x4dc;" horiz-adv-x="740" 
d="M65 -10q-26 0 -43 5l-17 5v45q38 0 56.5 19.5t23.5 45.5l25 130q12 63 37.5 88t62.5 35v4q-34 10 -54 35.5t-36 87.5l-25 100q-7 30 -24.5 47.5t-55.5 17.5v45l17 5t43 5q41 0 70.5 -30t44.5 -90l25 -100q13 -52 36 -71t49 -19h25v300h90v-300h25q26 0 49 19t36 71
l25 100q15 60 44.5 90t70.5 30q26 0 43 -5l17 -5v-45q-37 0 -54.5 -17.5t-25.5 -47.5l-25 -100q-16 -62 -36 -87.5t-54 -35.5v-4q38 -10 63 -35t37 -88l25 -130q5 -26 24 -45.5t56 -19.5v-45l-17 -5t-43 -5q-45 0 -74.5 30t-40.5 90l-25 130q-10 53 -35.5 71.5t-59.5 18.5
h-25v-330h-90v330h-25q-34 0 -59.5 -18.5t-35.5 -71.5l-25 -130q-11 -60 -40.5 -90t-74.5 -30zM405 780v110h90v-110h-90zM245 780v110h90v-110h-90z" />
    <glyph glyph-name="uni04DD" unicode="&#x4dd;" horiz-adv-x="642" 
d="M65 -10q-22 0 -38.5 5l-16.5 5v40q30 0 43 10t17 25l25 95q13 49 33.5 68t47.5 25v4q-22 6 -38.5 24.5t-32.5 63.5l-25 70q-5 15 -17.5 25t-42.5 10v40l18 5t37 5q41 0 62.5 -20.5t37.5 -64.5l25 -70q12 -34 26 -47t30 -13h20v205h90v-205h20q16 0 30 13t26 47l25 70
q16 44 37.5 64.5t62.5 20.5q19 0 37 -5l18 -5v-40q-30 0 -42.5 -10t-17.5 -25l-25 -70q-16 -45 -32 -63.5t-39 -24.5v-4q27 -6 47.5 -25t33.5 -68l25 -95q4 -15 17 -25t43 -10v-40l-16 -5t-39 -5q-41 0 -65 22t-35 63l-25 95q-16 60 -66 60h-20v-230h-90v230h-20
q-49 0 -66 -60l-25 -95q-11 -41 -35 -63t-65 -22zM356 580v110h90v-110h-90zM196 580v110h90v-110h-90z" />
    <glyph glyph-name="uni04DE" unicode="&#x4de;" horiz-adv-x="425" 
d="M155 -10q-37 0 -77 6.5t-63 13.5v45h140q75 0 107.5 32t32.5 103q0 75 -32.5 107.5t-107.5 32.5h-70v70h60q68 0 99 30.5t31 94.5q0 60 -31 90t-99 30h-120v45q23 8 61.5 14t68.5 6q113 0 161.5 -45.5t48.5 -139.5q0 -60 -22.5 -96t-67.5 -57v-4q60 -17 85 -65.5
t25 -112.5q0 -105 -51 -152.5t-179 -47.5zM205 780v110h90v-110h-90zM45 780v110h90v-110h-90z" />
    <glyph glyph-name="uni04DF" unicode="&#x4df;" horiz-adv-x="380" 
d="M135 -10q-30 0 -63.5 6.5t-56.5 13.5v40h120q56 0 85.5 19t29.5 71q0 53 -25.5 71.5t-59.5 18.5h-85v60h75q34 0 59.5 17.5t25.5 62.5t-29.5 62.5t-85.5 17.5h-100v40q23 8 56.5 14t63.5 6q94 0 139.5 -28.5t45.5 -111.5q0 -32 -11.5 -52.5t-30 -32t-38.5 -18.5v-4
q23 -6 43.5 -21t33.5 -39.5t13 -62.5q0 -60 -21 -92.5t-66 -45t-118 -12.5zM190 580v110h90v-110h-90zM30 580v110h90v-110h-90z" />
    <glyph glyph-name="uni04E2" unicode="&#x4e2;" horiz-adv-x="540" 
d="M70 0v700h90v-520h5l200 520h105v-700h-90v520h-5l-205 -520h-100zM155 795v60h230v-60h-230z" />
    <glyph glyph-name="uni04E3" unicode="&#x4e3;" horiz-adv-x="480" 
d="M65 0v500h90v-340h5l150 340h105v-500h-90v350h-5l-160 -350h-95zM125 610v60h230v-60h-230z" />
    <glyph glyph-name="uni04E4" unicode="&#x4e4;" horiz-adv-x="540" 
d="M70 0v700h90v-520h5l200 520h105v-700h-90v520h-5l-205 -520h-100zM305 780v110h90v-110h-90zM145 780v110h90v-110h-90z" />
    <glyph glyph-name="uni04E5" unicode="&#x4e5;" horiz-adv-x="480" 
d="M65 0v500h90v-340h5l150 340h105v-500h-90v350h-5l-160 -350h-95zM275 580v110h90v-110h-90zM115 580v110h90v-110h-90z" />
    <glyph glyph-name="uni04E6" unicode="&#x4e6;" horiz-adv-x="530" 
d="M265 -10q-67 0 -115.5 31.5t-74 110t-25.5 218.5t25.5 218.5t74 110t115.5 31.5q68 0 116 -31.5t73.5 -110t25.5 -218.5t-25.5 -218.5t-73.5 -110t-116 -31.5zM265 50q24 0 46.5 13.5t40.5 46.5t28 91.5t10 148.5t-10 148.5t-28 91.5t-40.5 46.5t-46.5 13.5t-46.5 -13.5
t-40.5 -46.5t-28 -91.5t-10 -148.5t10 -148.5t28 -91.5t40.5 -46.5t46.5 -13.5zM300 780v110h90v-110h-90zM140 780v110h90v-110h-90z" />
    <glyph glyph-name="uni04E7" unicode="&#x4e7;" horiz-adv-x="460" 
d="M230 -10q-60 0 -101 24.5t-62.5 81.5t-21.5 154q0 98 21.5 154.5t62.5 81t101 24.5t101.5 -24.5t62.5 -81t21 -154.5q0 -97 -21 -154t-62.5 -81.5t-101.5 -24.5zM230 45q25 0 46.5 18t35 62.5t13.5 124.5t-13.5 124.5t-35 62.5t-46.5 18t-46.5 -18t-35 -62.5
t-13.5 -124.5t13.5 -124.5t35 -62.5t46.5 -18zM265 580v110h90v-110h-90zM105 580v110h90v-110h-90z" />
    <glyph glyph-name="uni04E8" unicode="&#x4e8;" horiz-adv-x="530" 
d="M265 -10q-67 0 -115.5 31.5t-74 110t-25.5 218.5t25.5 218.5t74 110t115.5 31.5q68 0 116 -31.5t73.5 -110t25.5 -218.5t-25.5 -218.5t-73.5 -110t-116 -31.5zM265 50q24 0 46.5 13.5t40.5 46.5t28 91.5t10 148.5t-10 148.5t-28 91.5t-40.5 46.5t-46.5 13.5t-46.5 -13.5
t-40.5 -46.5t-28 -91.5t-10 -148.5t10 -148.5t28 -91.5t40.5 -46.5t46.5 -13.5zM120 317v65h290v-45q-22 -7 -56 -13.5t-64 -6.5h-170z" />
    <glyph glyph-name="uni04E9" unicode="&#x4e9;" horiz-adv-x="460" 
d="M230 -10q-60 0 -101 24.5t-62.5 81.5t-21.5 154q0 98 21.5 154.5t62.5 81t101 24.5t101.5 -24.5t62.5 -81t21 -154.5q0 -97 -21 -154t-62.5 -81.5t-101.5 -24.5zM230 45q25 0 46.5 18t35 62.5t13.5 124.5t-13.5 124.5t-35 62.5t-46.5 18t-46.5 -18t-35 -62.5
t-13.5 -124.5t13.5 -124.5t35 -62.5t46.5 -18zM85 217v65h290v-45q-22 -7 -56 -13.5t-64 -6.5h-170z" />
    <glyph glyph-name="uni04EE" unicode="&#x4ee;" horiz-adv-x="465" 
d="M176 -10q-22 0 -49.5 6.5t-50.5 13.5v45h70q27 0 47 12.5t35 44t26 88.5q-63 0 -98.5 32.5t-50.5 87.5l-105 380h90l105 -380q8 -26 26 -40.5t46 -14.5l88 435h90l-109 -540q-18 -90 -55.5 -130t-104.5 -40zM119 795v60h230v-60h-230z" />
    <glyph glyph-name="uni04EF" unicode="&#x4ef;" horiz-adv-x="445" 
d="M155 -210q-22 0 -46.5 6.5t-43.5 13.5v40h70q25 0 42.5 11t30 41.5t22.5 87.5q-49 0 -78 32t-42 88l-90 390h90l90 -390q7 -30 18 -42.5t24 -12.5l83 445h90l-95 -510q-19 -105 -58 -152.5t-107 -47.5zM108 610v60h230v-60h-230z" />
    <glyph glyph-name="uni04F0" unicode="&#x4f0;" horiz-adv-x="465" 
d="M176 -10q-22 0 -49.5 6.5t-50.5 13.5v45h70q27 0 47 12.5t35 44t26 88.5q-63 0 -98.5 32.5t-50.5 87.5l-105 380h90l105 -380q8 -26 26 -40.5t46 -14.5l88 435h90l-109 -540q-18 -90 -55.5 -130t-104.5 -40zM268 780v110h90v-110h-90zM108 780v110h90v-110h-90z" />
    <glyph glyph-name="uni04F1" unicode="&#x4f1;" horiz-adv-x="445" 
d="M155 -210q-22 0 -46.5 6.5t-43.5 13.5v40h70q25 0 42.5 11t30 41.5t22.5 87.5q-49 0 -78 32t-42 88l-90 390h90l90 -390q7 -30 18 -42.5t24 -12.5l83 445h90l-95 -510q-19 -105 -58 -152.5t-107 -47.5zM258 580v110h90v-110h-90zM98 580v110h90v-110h-90z" />
    <glyph glyph-name="uni04F2" unicode="&#x4f2;" horiz-adv-x="465" 
d="M176 -10q-22 0 -49.5 6.5t-50.5 13.5v45h70q27 0 47 12.5t35 44t26 88.5q-63 0 -98.5 32.5t-50.5 87.5l-105 380h90l105 -380q8 -26 26 -40.5t46 -14.5l88 435h90l-109 -540q-18 -90 -55.5 -130t-104.5 -40zM265 760l55 126h90l-90 -126h-55zM150 760l55 126h90l-90 -126
h-55z" />
    <glyph glyph-name="uni04F3" unicode="&#x4f3;" horiz-adv-x="445" 
d="M155 -210q-22 0 -46.5 6.5t-43.5 13.5v40h70q25 0 42.5 11t30 41.5t22.5 87.5q-49 0 -78 32t-42 88l-90 390h90l90 -390q7 -30 18 -42.5t24 -12.5l83 445h90l-95 -510q-19 -105 -58 -152.5t-107 -47.5zM255 560l55 126h90l-90 -126h-55zM140 560l55 126h90l-90 -126h-55z
" />
    <glyph glyph-name="uni04F4" unicode="&#x4f4;" horiz-adv-x="505" 
d="M345 0v270q-19 -4 -49.5 -7t-60.5 -3q-93 0 -139 47t-46 148v245h90v-245q0 -64 32 -94.5t103 -30.5h70v370h90v-700h-90zM288 780v110h90v-110h-90zM128 780v110h90v-110h-90z" />
    <glyph glyph-name="uni04F5" unicode="&#x4f5;" horiz-adv-x="455" 
d="M300 0v190q-19 -4 -50 -7t-65 -3q-40 0 -71.5 12.5t-50 44t-18.5 88.5v175h90v-175q0 -49 27.5 -67t72.5 -18h65v260h90v-500h-90zM243 580v110h90v-110h-90zM83 580v110h90v-110h-90z" />
    <glyph glyph-name="uni04F6" unicode="&#x4f6;" horiz-adv-x="410" 
d="M70 0v700h320v-70h-230v-630h-90zM170 -150q-11 30 -18.5 67.5t-11.5 82.5h-70v70h155v-220h-55z" />
    <glyph glyph-name="uni04F7" unicode="&#x4f7;" horiz-adv-x="365" 
d="M65 0v500h290v-65h-200v-435h-90zM160 -145q-11 30 -18.5 69t-11.5 76h-65v65h150v-210h-55z" />
    <glyph glyph-name="uni04F8" unicode="&#x4f8;" horiz-adv-x="690" 
d="M230 -10q-45 0 -83.5 4.5t-76.5 15.5v690h90v-285q19 4 48.5 7t51.5 3q94 0 139.5 -50t45.5 -170q0 -116 -49.5 -165.5t-165.5 -49.5zM160 55h70q64 0 94.5 34t30.5 116q0 83 -30.5 116.5t-94.5 33.5h-70v-300zM530 0v700h90v-700h-90zM380 780v110h90v-110h-90zM220 780
v110h90v-110h-90z" />
    <glyph glyph-name="uni04F9" unicode="&#x4f9;" horiz-adv-x="630" 
d="M225 -10q-45 0 -83.5 4.5t-76.5 15.5v490h90v-195q23 4 46.5 7t53.5 3q45 0 78.5 -13t52.5 -48.5t19 -103.5q0 -65 -20 -99.5t-60 -47.5t-100 -13zM155 50h70q28 0 48 8.5t31 30t11 61.5t-11 61.5t-31 30t-48 8.5h-70v-200zM475 0v500h90v-500h-90zM350 580v110h90v-110
h-90zM190 580v110h90v-110h-90z" />
    <glyph glyph-name="uni051A" unicode="&#x51a;" horiz-adv-x="540" 
d="M265 -10q-67 0 -115.5 31.5t-74 110t-25.5 218.5t25.5 218.5t74 110t115.5 31.5q68 0 116 -31.5t73.5 -110t25.5 -218.5q0 -116 -18 -187.5t-52 -112.5q38 0 68 -6t52 -14v-40h-265zM265 50q24 0 46.5 13.5t40.5 46.5t28 91.5t10 148.5t-10 148.5t-28 91.5t-40.5 46.5
t-46.5 13.5t-46.5 -13.5t-40.5 -46.5t-28 -91.5t-10 -148.5t10 -148.5t28 -91.5t40.5 -46.5t46.5 -13.5z" />
    <glyph glyph-name="uni051B" unicode="&#x51b;" horiz-adv-x="465" 
d="M310 -200v215q-22 -11 -46 -18t-54 -7q-52 0 -89 23.5t-56.5 80t-19.5 156.5t20.5 156.5t64 80t110.5 23.5q45 0 84 -7.5t76 -22.5v-680h-90zM240 50q19 0 39 6.5t31 13.5v380h-70q-32 0 -56 -16.5t-36.5 -60t-12.5 -123.5t12.5 -123.5t36.5 -60t56 -16.5z" />
    <glyph glyph-name="uni051C" unicode="&#x51c;" horiz-adv-x="720" 
d="M135 0l-115 700h90l90 -540h5l110 410h90l110 -410h5l90 540h90l-115 -700h-110l-113 420h-4l-113 -420h-110z" />
    <glyph glyph-name="uni051D" unicode="&#x51d;" horiz-adv-x="610" 
d="M105 0l-90 500h85l69 -380h5l91 280h80l91 -280h5l69 380h85l-90 -500h-110l-88 270h-4l-88 -270h-110z" />
    <glyph glyph-name="uni0524" unicode="&#x524;" horiz-adv-x="530" 
d="M70 0v700h390v-700h-90v630h-210v-630h-90zM470 -150q-11 30 -18.5 67.5t-11.5 82.5h-70v70h155v-220h-55z" />
    <glyph glyph-name="uni0525" unicode="&#x525;" horiz-adv-x="475" 
d="M65 0v500h345v-500h-90v435h-165v-435h-90zM415 -145q-11 30 -18.5 69t-11.5 76h-65v65h150v-210h-55z" />
    <glyph glyph-name="uni1EA0" unicode="&#x1ea0;" horiz-adv-x="510" 
d="M20 0l170 700h130l170 -700h-90l-45 180h-200l-45 -180h-90zM170 250h170l-83 350h-4zM218 -156v91h74v-91h-74z" />
    <glyph glyph-name="uni1EA1" unicode="&#x1ea1;" 
d="M195 -10q-45 0 -78.5 13t-52.5 47.5t-19 99.5q0 63 19 96.5t52.5 46t78.5 12.5q23 0 50.5 -3t49.5 -7v45q0 68 -28.5 89t-81.5 21h-100v40q23 8 56.5 14t63.5 6q60 0 100 -13.5t60 -50t20 -106.5v-340h-75l-5 30h-5q-19 -19 -47 -29.5t-58 -10.5zM225 50q19 0 39 6.5
t31 13.5v175h-70q-25 0 -45.5 -8t-32.5 -28.5t-12 -58.5q0 -40 12 -61.5t32.5 -30t45.5 -8.5zM188 -156v91h74v-91h-74z" />
    <glyph glyph-name="uni1EA2" unicode="&#x1ea2;" horiz-adv-x="510" 
d="M20 0l170 700h130l170 -700h-90l-45 180h-200l-45 -180h-90zM170 250h170l-83 350h-4zM227 749q0 21 11 33.5t22 22.5t11 23q0 37 -42 37h-50v47q8 3 24 5.5t33 2.5q23 0 44.5 -7.5t35.5 -26.5t14 -54q0 -18 -13 -31t-26 -24.5t-13 -27.5h-51z" />
    <glyph glyph-name="uni1EA3" unicode="&#x1ea3;" 
d="M195 -10q-45 0 -78.5 13t-52.5 47.5t-19 99.5q0 63 19 96.5t52.5 46t78.5 12.5q23 0 50.5 -3t49.5 -7v45q0 68 -28.5 89t-81.5 21h-100v40q23 8 56.5 14t63.5 6q60 0 100 -13.5t60 -50t20 -106.5v-340h-75l-5 30h-5q-19 -19 -47 -29.5t-58 -10.5zM225 50q19 0 39 6.5
t31 13.5v175h-70q-25 0 -45.5 -8t-32.5 -28.5t-12 -58.5q0 -40 12 -61.5t32.5 -30t45.5 -8.5zM197 549q0 21 11 33.5t22 22.5t11 23q0 37 -42 37h-50v47q8 3 24 5.5t33 2.5q23 0 44.5 -7.5t35.5 -26.5t14 -54q0 -18 -13 -31t-26 -24.5t-13 -27.5h-51z" />
    <glyph glyph-name="uni1EA4" unicode="&#x1ea4;" horiz-adv-x="510" 
d="M20 0l170 700h130l170 -700h-90l-45 180h-200l-45 -180h-90zM170 250h170l-83 350h-4zM132 750l75 130h95l75 -130h-60l-63 74l-62 -74h-60zM362 828l35 130h95l-70 -130h-60z" />
    <glyph glyph-name="uni1EA5" unicode="&#x1ea5;" 
d="M195 -10q-45 0 -78.5 13t-52.5 47.5t-19 99.5q0 63 19 96.5t52.5 46t78.5 12.5q23 0 50.5 -3t49.5 -7v45q0 68 -28.5 89t-81.5 21h-100v40q23 8 56.5 14t63.5 6q60 0 100 -13.5t60 -50t20 -106.5v-340h-75l-5 30h-5q-19 -19 -47 -29.5t-58 -10.5zM225 50q19 0 39 6.5
t31 13.5v175h-70q-25 0 -45.5 -8t-32.5 -28.5t-12 -58.5q0 -40 12 -61.5t32.5 -30t45.5 -8.5zM102 550l75 130h95l75 -130h-60l-63 74l-62 -74h-60zM332 628l35 130h95l-70 -130h-60z" />
    <glyph glyph-name="uni1EA6" unicode="&#x1ea6;" horiz-adv-x="510" 
d="M20 0l170 700h130l170 -700h-90l-45 180h-200l-45 -180h-90zM170 250h170l-83 350h-4zM132 750l75 130h95l75 -130h-60l-63 74l-62 -74h-60zM376 847l-63 130h95l28 -130h-60z" />
    <glyph glyph-name="uni1EA7" unicode="&#x1ea7;" 
d="M195 -10q-45 0 -78.5 13t-52.5 47.5t-19 99.5q0 63 19 96.5t52.5 46t78.5 12.5q23 0 50.5 -3t49.5 -7v45q0 68 -28.5 89t-81.5 21h-100v40q23 8 56.5 14t63.5 6q60 0 100 -13.5t60 -50t20 -106.5v-340h-75l-5 30h-5q-19 -19 -47 -29.5t-58 -10.5zM225 50q19 0 39 6.5
t31 13.5v175h-70q-25 0 -45.5 -8t-32.5 -28.5t-12 -58.5q0 -40 12 -61.5t32.5 -30t45.5 -8.5zM102 550l75 130h95l75 -130h-60l-63 74l-62 -74h-60zM346 647l-63 130h95l28 -130h-60z" />
    <glyph glyph-name="uni1EA8" unicode="&#x1ea8;" horiz-adv-x="510" 
d="M20 0l170 700h130l170 -700h-90l-45 180h-200l-45 -180h-90zM170 250h170l-83 350h-4zM132 750l75 130h95l75 -130h-60l-63 74l-62 -74h-60zM367 815q0 21 11 33.5t22 22.5t11 23q0 37 -42 37h-50v47q8 3 24 5.5t33 2.5q23 0 44.5 -7.5t35.5 -26.5t14 -54q0 -18 -13 -31
t-26 -24.5t-13 -27.5h-51z" />
    <glyph glyph-name="uni1EA9" unicode="&#x1ea9;" 
d="M195 -10q-45 0 -78.5 13t-52.5 47.5t-19 99.5q0 63 19 96.5t52.5 46t78.5 12.5q23 0 50.5 -3t49.5 -7v45q0 68 -28.5 89t-81.5 21h-100v40q23 8 56.5 14t63.5 6q60 0 100 -13.5t60 -50t20 -106.5v-340h-75l-5 30h-5q-19 -19 -47 -29.5t-58 -10.5zM225 50q19 0 39 6.5
t31 13.5v175h-70q-25 0 -45.5 -8t-32.5 -28.5t-12 -58.5q0 -40 12 -61.5t32.5 -30t45.5 -8.5zM102 550l75 130h95l75 -130h-60l-63 74l-62 -74h-60zM337 615q0 21 11 33.5t22 22.5t11 23q0 37 -42 37h-50v47q8 3 24 5.5t33 2.5q23 0 44.5 -7.5t35.5 -26.5t14 -54
q0 -18 -13 -31t-26 -24.5t-13 -27.5h-51z" />
    <glyph glyph-name="uni1EAA" unicode="&#x1eaa;" horiz-adv-x="510" 
d="M20 0l170 700h130l170 -700h-90l-45 180h-200l-45 -180h-90zM170 250h170l-83 350h-4zM132 750l75 130h95l75 -130h-60l-63 74l-62 -74h-60zM295 911q-19 0 -31 9t-20.5 21t-16.5 21t-17 9q-25 0 -25 -45h-50q0 56 19.5 80.5t60.5 24.5q19 0 31 -9t20.5 -21t16.5 -21
t17 -9q25 0 25 45h50q0 -56 -19.5 -80.5t-60.5 -24.5z" />
    <glyph glyph-name="uni1EAB" unicode="&#x1eab;" 
d="M195 -10q-45 0 -78.5 13t-52.5 47.5t-19 99.5q0 63 19 96.5t52.5 46t78.5 12.5q23 0 50.5 -3t49.5 -7v45q0 68 -28.5 89t-81.5 21h-100v40q23 8 56.5 14t63.5 6q60 0 100 -13.5t60 -50t20 -106.5v-340h-75l-5 30h-5q-19 -19 -47 -29.5t-58 -10.5zM225 50q19 0 39 6.5
t31 13.5v175h-70q-25 0 -45.5 -8t-32.5 -28.5t-12 -58.5q0 -40 12 -61.5t32.5 -30t45.5 -8.5zM102 550l75 130h95l75 -130h-60l-63 74l-62 -74h-60zM265 711q-19 0 -31 9t-20.5 21t-16.5 21t-17 9q-25 0 -25 -45h-50q0 56 19.5 80.5t60.5 24.5q19 0 31 -9t20.5 -21t16.5 -21
t17 -9q25 0 25 45h50q0 -56 -19.5 -80.5t-60.5 -24.5z" />
    <glyph glyph-name="uni1EAC" unicode="&#x1eac;" horiz-adv-x="510" 
d="M20 0l170 700h130l170 -700h-90l-45 180h-200l-45 -180h-90zM170 250h170l-83 350h-4zM218 -156v91h74v-91h-74zM132 750l75 130h95l75 -130h-60l-63 74l-62 -74h-60z" />
    <glyph glyph-name="uni1EAD" unicode="&#x1ead;" 
d="M195 -10q-45 0 -78.5 13t-52.5 47.5t-19 99.5q0 63 19 96.5t52.5 46t78.5 12.5q23 0 50.5 -3t49.5 -7v45q0 68 -28.5 89t-81.5 21h-100v40q23 8 56.5 14t63.5 6q60 0 100 -13.5t60 -50t20 -106.5v-340h-75l-5 30h-5q-19 -19 -47 -29.5t-58 -10.5zM225 50q19 0 39 6.5
t31 13.5v175h-70q-25 0 -45.5 -8t-32.5 -28.5t-12 -58.5q0 -40 12 -61.5t32.5 -30t45.5 -8.5zM188 -156v91h74v-91h-74zM102 550l75 130h95l75 -130h-60l-63 74l-62 -74h-60z" />
    <glyph glyph-name="uni1EAE" unicode="&#x1eae;" horiz-adv-x="510" 
d="M20 0l170 700h130l170 -700h-90l-45 180h-200l-45 -180h-90zM170 250h170l-83 350h-4zM255 770q-49 0 -82.5 20t-52.5 50l40 40q15 -15 40 -27.5t55 -12.5t55 12.5t40 27.5l40 -40q-19 -30 -52.5 -50t-82.5 -20zM225 893l35 130h95l-70 -130h-60z" />
    <glyph glyph-name="uni1EAF" unicode="&#x1eaf;" 
d="M195 -10q-45 0 -78.5 13t-52.5 47.5t-19 99.5q0 63 19 96.5t52.5 46t78.5 12.5q23 0 50.5 -3t49.5 -7v45q0 68 -28.5 89t-81.5 21h-100v40q23 8 56.5 14t63.5 6q60 0 100 -13.5t60 -50t20 -106.5v-340h-75l-5 30h-5q-19 -19 -47 -29.5t-58 -10.5zM225 50q19 0 39 6.5
t31 13.5v175h-70q-25 0 -45.5 -8t-32.5 -28.5t-12 -58.5q0 -40 12 -61.5t32.5 -30t45.5 -8.5zM225 570q-49 0 -82.5 20t-52.5 50l40 40q15 -15 40 -27.5t55 -12.5t55 12.5t40 27.5l40 -40q-19 -30 -52.5 -50t-82.5 -20zM195 693l35 130h95l-70 -130h-60z" />
    <glyph glyph-name="uni1EB0" unicode="&#x1eb0;" horiz-adv-x="510" 
d="M20 0l170 700h130l170 -700h-90l-45 180h-200l-45 -180h-90zM170 250h170l-83 350h-4zM255 770q-49 0 -82.5 20t-52.5 50l40 40q15 -15 40 -27.5t55 -12.5t55 12.5t40 27.5l40 -40q-19 -30 -52.5 -50t-82.5 -20zM229 889l-63 130h95l28 -130h-60z" />
    <glyph glyph-name="uni1EB1" unicode="&#x1eb1;" 
d="M195 -10q-45 0 -78.5 13t-52.5 47.5t-19 99.5q0 63 19 96.5t52.5 46t78.5 12.5q23 0 50.5 -3t49.5 -7v45q0 68 -28.5 89t-81.5 21h-100v40q23 8 56.5 14t63.5 6q60 0 100 -13.5t60 -50t20 -106.5v-340h-75l-5 30h-5q-19 -19 -47 -29.5t-58 -10.5zM225 50q19 0 39 6.5
t31 13.5v175h-70q-25 0 -45.5 -8t-32.5 -28.5t-12 -58.5q0 -40 12 -61.5t32.5 -30t45.5 -8.5zM225 570q-49 0 -82.5 20t-52.5 50l40 40q15 -15 40 -27.5t55 -12.5t55 12.5t40 27.5l40 -40q-19 -30 -52.5 -50t-82.5 -20zM199 689l-63 130h95l28 -130h-60z" />
    <glyph glyph-name="uni1EB2" unicode="&#x1eb2;" horiz-adv-x="510" 
d="M20 0l170 700h130l170 -700h-90l-45 180h-200l-45 -180h-90zM170 250h170l-83 350h-4zM255 770q-49 0 -82.5 20t-52.5 50l40 40q15 -15 40 -27.5t55 -12.5t55 12.5t40 27.5l40 -40q-19 -30 -52.5 -50t-82.5 -20zM215 886q0 21 11 33.5t22 22.5t11 23q0 37 -42 37h-50v47
q8 3 24 5.5t33 2.5q23 0 44.5 -7.5t35.5 -26.5t14 -54q0 -18 -13 -31t-26 -24.5t-13 -27.5h-51z" />
    <glyph glyph-name="uni1EB3" unicode="&#x1eb3;" 
d="M195 -10q-45 0 -78.5 13t-52.5 47.5t-19 99.5q0 63 19 96.5t52.5 46t78.5 12.5q23 0 50.5 -3t49.5 -7v45q0 68 -28.5 89t-81.5 21h-100v40q23 8 56.5 14t63.5 6q60 0 100 -13.5t60 -50t20 -106.5v-340h-75l-5 30h-5q-19 -19 -47 -29.5t-58 -10.5zM225 50q19 0 39 6.5
t31 13.5v175h-70q-25 0 -45.5 -8t-32.5 -28.5t-12 -58.5q0 -40 12 -61.5t32.5 -30t45.5 -8.5zM225 570q-49 0 -82.5 20t-52.5 50l40 40q15 -15 40 -27.5t55 -12.5t55 12.5t40 27.5l40 -40q-19 -30 -52.5 -50t-82.5 -20zM185 686q0 21 11 33.5t22 22.5t11 23q0 37 -42 37h-50
v47q8 3 24 5.5t33 2.5q23 0 44.5 -7.5t35.5 -26.5t14 -54q0 -18 -13 -31t-26 -24.5t-13 -27.5h-51z" />
    <glyph glyph-name="uni1EB4" unicode="&#x1eb4;" horiz-adv-x="510" 
d="M20 0l170 700h130l170 -700h-90l-45 180h-200l-45 -180h-90zM170 250h170l-83 350h-4zM255 770q-49 0 -82.5 20t-52.5 50l40 40q15 -15 40 -27.5t55 -12.5t55 12.5t40 27.5l40 -40q-19 -30 -52.5 -50t-82.5 -20zM295 908q-19 0 -31 9t-20.5 21t-16.5 21t-17 9
q-25 0 -25 -45h-50q0 56 19.5 80.5t60.5 24.5q19 0 31 -9t20.5 -21t16.5 -21t17 -9q25 0 25 45h50q0 -56 -19.5 -80.5t-60.5 -24.5z" />
    <glyph glyph-name="uni1EB5" unicode="&#x1eb5;" 
d="M195 -10q-45 0 -78.5 13t-52.5 47.5t-19 99.5q0 63 19 96.5t52.5 46t78.5 12.5q23 0 50.5 -3t49.5 -7v45q0 68 -28.5 89t-81.5 21h-100v40q23 8 56.5 14t63.5 6q60 0 100 -13.5t60 -50t20 -106.5v-340h-75l-5 30h-5q-19 -19 -47 -29.5t-58 -10.5zM225 50q19 0 39 6.5
t31 13.5v175h-70q-25 0 -45.5 -8t-32.5 -28.5t-12 -58.5q0 -40 12 -61.5t32.5 -30t45.5 -8.5zM225 570q-49 0 -82.5 20t-52.5 50l40 40q15 -15 40 -27.5t55 -12.5t55 12.5t40 27.5l40 -40q-19 -30 -52.5 -50t-82.5 -20zM265 708q-19 0 -31 9t-20.5 21t-16.5 21t-17 9
q-25 0 -25 -45h-50q0 56 19.5 80.5t60.5 24.5q19 0 31 -9t20.5 -21t16.5 -21t17 -9q25 0 25 45h50q0 -56 -19.5 -80.5t-60.5 -24.5z" />
    <glyph glyph-name="uni1EB6" unicode="&#x1eb6;" horiz-adv-x="510" 
d="M20 0l170 700h130l170 -700h-90l-45 180h-200l-45 -180h-90zM170 250h170l-83 350h-4zM218 -156v91h74v-91h-74zM255 770q-49 0 -82.5 20t-52.5 50l40 40q15 -15 40 -27.5t55 -12.5t55 12.5t40 27.5l40 -40q-19 -30 -52.5 -50t-82.5 -20z" />
    <glyph glyph-name="uni1EB7" unicode="&#x1eb7;" 
d="M195 -10q-45 0 -78.5 13t-52.5 47.5t-19 99.5q0 63 19 96.5t52.5 46t78.5 12.5q23 0 50.5 -3t49.5 -7v45q0 68 -28.5 89t-81.5 21h-100v40q23 8 56.5 14t63.5 6q60 0 100 -13.5t60 -50t20 -106.5v-340h-75l-5 30h-5q-19 -19 -47 -29.5t-58 -10.5zM225 50q19 0 39 6.5
t31 13.5v175h-70q-25 0 -45.5 -8t-32.5 -28.5t-12 -58.5q0 -40 12 -61.5t32.5 -30t45.5 -8.5zM188 -156v91h74v-91h-74zM225 570q-49 0 -82.5 20t-52.5 50l40 40q15 -15 40 -27.5t55 -12.5t55 12.5t40 27.5l40 -40q-19 -30 -52.5 -50t-82.5 -20z" />
    <glyph glyph-name="uni1EB8" unicode="&#x1eb8;" 
d="M70 0v700h340v-70h-250v-230h220v-70h-220v-260h250v-70h-340zM188 -156v91h74v-91h-74z" />
    <glyph glyph-name="uni1EB9" unicode="&#x1eb9;" horiz-adv-x="440" 
d="M255 -10q-75 0 -121 23.5t-67.5 80t-21.5 156.5t20 156.5t59 80t96 23.5q58 0 96.5 -23.5t58.5 -80t20 -156.5v-30h-260q0 -97 32.5 -133.5t107.5 -36.5h100v-40q-22 -7 -56 -13.5t-64 -6.5zM135 280h170q0 68 -12 106t-31 53.5t-42 15.5q-22 0 -41.5 -15.5t-31.5 -53.5
t-12 -106zM183 -156v91h74v-91h-74z" />
    <glyph glyph-name="uni1EBA" unicode="&#x1eba;" 
d="M70 0v700h340v-70h-250v-230h220v-70h-220v-260h250v-70h-340zM197 749q0 21 11 33.5t22 22.5t11 23q0 37 -42 37h-50v47q8 3 24 5.5t33 2.5q23 0 44.5 -7.5t35.5 -26.5t14 -54q0 -18 -13 -31t-26 -24.5t-13 -27.5h-51z" />
    <glyph glyph-name="uni1EBB" unicode="&#x1ebb;" horiz-adv-x="440" 
d="M255 -10q-75 0 -121 23.5t-67.5 80t-21.5 156.5t20 156.5t59 80t96 23.5q58 0 96.5 -23.5t58.5 -80t20 -156.5v-30h-260q0 -97 32.5 -133.5t107.5 -36.5h100v-40q-22 -7 -56 -13.5t-64 -6.5zM135 280h170q0 68 -12 106t-31 53.5t-42 15.5q-22 0 -41.5 -15.5t-31.5 -53.5
t-12 -106zM192 549q0 21 11 33.5t22 22.5t11 23q0 37 -42 37h-50v47q8 3 24 5.5t33 2.5q23 0 44.5 -7.5t35.5 -26.5t14 -54q0 -18 -13 -31t-26 -24.5t-13 -27.5h-51z" />
    <glyph glyph-name="uni1EBC" unicode="&#x1ebc;" 
d="M70 0v700h340v-70h-250v-230h220v-70h-220v-260h250v-70h-340zM265 765q-19 0 -31 9t-20.5 21t-16.5 21t-17 9q-25 0 -25 -45h-50q0 56 19.5 80.5t60.5 24.5q19 0 31 -9t20.5 -21t16.5 -21t17 -9q25 0 25 45h50q0 -56 -19.5 -80.5t-60.5 -24.5z" />
    <glyph glyph-name="uni1EBD" unicode="&#x1ebd;" horiz-adv-x="440" 
d="M255 -10q-75 0 -121 23.5t-67.5 80t-21.5 156.5t20 156.5t59 80t96 23.5q58 0 96.5 -23.5t58.5 -80t20 -156.5v-30h-260q0 -97 32.5 -133.5t107.5 -36.5h100v-40q-22 -7 -56 -13.5t-64 -6.5zM135 280h170q0 68 -12 106t-31 53.5t-42 15.5q-22 0 -41.5 -15.5t-31.5 -53.5
t-12 -106zM260 565q-19 0 -31 9t-20.5 21t-16.5 21t-17 9q-25 0 -25 -45h-50q0 56 19.5 80.5t60.5 24.5q19 0 31 -9t20.5 -21t16.5 -21t17 -9q25 0 25 45h50q0 -56 -19.5 -80.5t-60.5 -24.5z" />
    <glyph glyph-name="uni1EBE" unicode="&#x1ebe;" 
d="M70 0v700h340v-70h-250v-230h220v-70h-220v-260h250v-70h-340zM102 750l75 130h95l75 -130h-60l-63 74l-62 -74h-60zM332 828l35 130h95l-70 -130h-60z" />
    <glyph glyph-name="uni1EBF" unicode="&#x1ebf;" horiz-adv-x="440" 
d="M255 -10q-75 0 -121 23.5t-67.5 80t-21.5 156.5t20 156.5t59 80t96 23.5q58 0 96.5 -23.5t58.5 -80t20 -156.5v-30h-260q0 -97 32.5 -133.5t107.5 -36.5h100v-40q-22 -7 -56 -13.5t-64 -6.5zM135 280h170q0 68 -12 106t-31 53.5t-42 15.5q-22 0 -41.5 -15.5t-31.5 -53.5
t-12 -106zM97 550l75 130h95l75 -130h-60l-63 74l-62 -74h-60zM327 628l35 130h95l-70 -130h-60z" />
    <glyph glyph-name="uni1EC0" unicode="&#x1ec0;" 
d="M70 0v700h340v-70h-250v-230h220v-70h-220v-260h250v-70h-340zM102 750l75 130h95l75 -130h-60l-63 74l-62 -74h-60zM346 847l-63 130h95l28 -130h-60z" />
    <glyph glyph-name="uni1EC1" unicode="&#x1ec1;" horiz-adv-x="440" 
d="M255 -10q-75 0 -121 23.5t-67.5 80t-21.5 156.5t20 156.5t59 80t96 23.5q58 0 96.5 -23.5t58.5 -80t20 -156.5v-30h-260q0 -97 32.5 -133.5t107.5 -36.5h100v-40q-22 -7 -56 -13.5t-64 -6.5zM135 280h170q0 68 -12 106t-31 53.5t-42 15.5q-22 0 -41.5 -15.5t-31.5 -53.5
t-12 -106zM97 550l75 130h95l75 -130h-60l-63 74l-62 -74h-60zM341 647l-63 130h95l28 -130h-60z" />
    <glyph glyph-name="uni1EC2" unicode="&#x1ec2;" 
d="M70 0v700h340v-70h-250v-230h220v-70h-220v-260h250v-70h-340zM102 750l75 130h95l75 -130h-60l-63 74l-62 -74h-60zM337 815q0 21 11 33.5t22 22.5t11 23q0 37 -42 37h-50v47q8 3 24 5.5t33 2.5q23 0 44.5 -7.5t35.5 -26.5t14 -54q0 -18 -13 -31t-26 -24.5t-13 -27.5
h-51z" />
    <glyph glyph-name="uni1EC3" unicode="&#x1ec3;" horiz-adv-x="440" 
d="M255 -10q-75 0 -121 23.5t-67.5 80t-21.5 156.5t20 156.5t59 80t96 23.5q58 0 96.5 -23.5t58.5 -80t20 -156.5v-30h-260q0 -97 32.5 -133.5t107.5 -36.5h100v-40q-22 -7 -56 -13.5t-64 -6.5zM135 280h170q0 68 -12 106t-31 53.5t-42 15.5q-22 0 -41.5 -15.5t-31.5 -53.5
t-12 -106zM97 550l75 130h95l75 -130h-60l-63 74l-62 -74h-60zM332 615q0 21 11 33.5t22 22.5t11 23q0 37 -42 37h-50v47q8 3 24 5.5t33 2.5q23 0 44.5 -7.5t35.5 -26.5t14 -54q0 -18 -13 -31t-26 -24.5t-13 -27.5h-51z" />
    <glyph glyph-name="uni1EC4" unicode="&#x1ec4;" 
d="M70 0v700h340v-70h-250v-230h220v-70h-220v-260h250v-70h-340zM102 750l75 130h95l75 -130h-60l-63 74l-62 -74h-60zM265 911q-19 0 -31 9t-20.5 21t-16.5 21t-17 9q-25 0 -25 -45h-50q0 56 19.5 80.5t60.5 24.5q19 0 31 -9t20.5 -21t16.5 -21t17 -9q25 0 25 45h50
q0 -56 -19.5 -80.5t-60.5 -24.5z" />
    <glyph glyph-name="uni1EC5" unicode="&#x1ec5;" horiz-adv-x="440" 
d="M255 -10q-75 0 -121 23.5t-67.5 80t-21.5 156.5t20 156.5t59 80t96 23.5q58 0 96.5 -23.5t58.5 -80t20 -156.5v-30h-260q0 -97 32.5 -133.5t107.5 -36.5h100v-40q-22 -7 -56 -13.5t-64 -6.5zM135 280h170q0 68 -12 106t-31 53.5t-42 15.5q-22 0 -41.5 -15.5t-31.5 -53.5
t-12 -106zM97 550l75 130h95l75 -130h-60l-63 74l-62 -74h-60zM260 711q-19 0 -31 9t-20.5 21t-16.5 21t-17 9q-25 0 -25 -45h-50q0 56 19.5 80.5t60.5 24.5q19 0 31 -9t20.5 -21t16.5 -21t17 -9q25 0 25 45h50q0 -56 -19.5 -80.5t-60.5 -24.5z" />
    <glyph glyph-name="uni1EC6" unicode="&#x1ec6;" 
d="M70 0v700h340v-70h-250v-230h220v-70h-220v-260h250v-70h-340zM188 -156v91h74v-91h-74zM102 750l75 130h95l75 -130h-60l-63 74l-62 -74h-60z" />
    <glyph glyph-name="uni1EC7" unicode="&#x1ec7;" horiz-adv-x="440" 
d="M255 -10q-75 0 -121 23.5t-67.5 80t-21.5 156.5t20 156.5t59 80t96 23.5q58 0 96.5 -23.5t58.5 -80t20 -156.5v-30h-260q0 -97 32.5 -133.5t107.5 -36.5h100v-40q-22 -7 -56 -13.5t-64 -6.5zM135 280h170q0 68 -12 106t-31 53.5t-42 15.5q-22 0 -41.5 -15.5t-31.5 -53.5
t-12 -106zM183 -156v91h74v-91h-74zM97 550l75 130h95l75 -130h-60l-63 74l-62 -74h-60z" />
    <glyph glyph-name="uni1EC8" unicode="&#x1ec8;" horiz-adv-x="230" 
d="M70 0v700h90v-700h-90zM87 749q0 21 11 33.5t22 22.5t11 23q0 37 -42 37h-50v47q8 3 24 5.5t33 2.5q23 0 44.5 -7.5t35.5 -26.5t14 -54q0 -18 -13 -31t-26 -24.5t-13 -27.5h-51z" />
    <glyph glyph-name="uni1EC9" unicode="&#x1ec9;" horiz-adv-x="230" 
d="M70 0v500h90v-500h-90zM87 549q0 21 11 33.5t22 22.5t11 23q0 37 -42 37h-50v47q8 3 24 5.5t33 2.5q23 0 44.5 -7.5t35.5 -26.5t14 -54q0 -18 -13 -31t-26 -24.5t-13 -27.5h-51z" />
    <glyph glyph-name="uni1ECA" unicode="&#x1eca;" horiz-adv-x="230" 
d="M70 0v700h90v-700h-90zM78 -156v91h74v-91h-74z" />
    <glyph glyph-name="uni1ECB" unicode="&#x1ecb;" horiz-adv-x="230" 
d="M70 0v500h90v-500h-90zM70 570v110h90v-110h-90zM78 -156v91h74v-91h-74z" />
    <glyph glyph-name="uni1ECC" unicode="&#x1ecc;" horiz-adv-x="530" 
d="M265 -10q-67 0 -115.5 31.5t-74 110t-25.5 218.5t25.5 218.5t74 110t115.5 31.5q68 0 116 -31.5t73.5 -110t25.5 -218.5t-25.5 -218.5t-73.5 -110t-116 -31.5zM265 50q24 0 46.5 13.5t40.5 46.5t28 91.5t10 148.5t-10 148.5t-28 91.5t-40.5 46.5t-46.5 13.5t-46.5 -13.5
t-40.5 -46.5t-28 -91.5t-10 -148.5t10 -148.5t28 -91.5t40.5 -46.5t46.5 -13.5zM228 -156v91h74v-91h-74z" />
    <glyph glyph-name="uni1ECD" unicode="&#x1ecd;" horiz-adv-x="460" 
d="M230 -10q-60 0 -101 24.5t-62.5 81.5t-21.5 154q0 98 21.5 154.5t62.5 81t101 24.5t101.5 -24.5t62.5 -81t21 -154.5q0 -97 -21 -154t-62.5 -81.5t-101.5 -24.5zM230 45q25 0 46.5 18t35 62.5t13.5 124.5t-13.5 124.5t-35 62.5t-46.5 18t-46.5 -18t-35 -62.5
t-13.5 -124.5t13.5 -124.5t35 -62.5t46.5 -18zM193 -156v91h74v-91h-74z" />
    <glyph glyph-name="uni1ECE" unicode="&#x1ece;" horiz-adv-x="530" 
d="M265 -10q-67 0 -115.5 31.5t-74 110t-25.5 218.5t25.5 218.5t74 110t115.5 31.5q68 0 116 -31.5t73.5 -110t25.5 -218.5t-25.5 -218.5t-73.5 -110t-116 -31.5zM265 50q24 0 46.5 13.5t40.5 46.5t28 91.5t10 148.5t-10 148.5t-28 91.5t-40.5 46.5t-46.5 13.5t-46.5 -13.5
t-40.5 -46.5t-28 -91.5t-10 -148.5t10 -148.5t28 -91.5t40.5 -46.5t46.5 -13.5zM237 749q0 21 11 33.5t22 22.5t11 23q0 37 -42 37h-50v47q8 3 24 5.5t33 2.5q23 0 44.5 -7.5t35.5 -26.5t14 -54q0 -18 -13 -31t-26 -24.5t-13 -27.5h-51z" />
    <glyph glyph-name="uni1ECF" unicode="&#x1ecf;" horiz-adv-x="460" 
d="M230 -10q-60 0 -101 24.5t-62.5 81.5t-21.5 154q0 98 21.5 154.5t62.5 81t101 24.5t101.5 -24.5t62.5 -81t21 -154.5q0 -97 -21 -154t-62.5 -81.5t-101.5 -24.5zM230 45q25 0 46.5 18t35 62.5t13.5 124.5t-13.5 124.5t-35 62.5t-46.5 18t-46.5 -18t-35 -62.5
t-13.5 -124.5t13.5 -124.5t35 -62.5t46.5 -18zM202 549q0 21 11 33.5t22 22.5t11 23q0 37 -42 37h-50v47q8 3 24 5.5t33 2.5q23 0 44.5 -7.5t35.5 -26.5t14 -54q0 -18 -13 -31t-26 -24.5t-13 -27.5h-51z" />
    <glyph glyph-name="uni1ED0" unicode="&#x1ed0;" horiz-adv-x="530" 
d="M265 -10q-67 0 -115.5 31.5t-74 110t-25.5 218.5t25.5 218.5t74 110t115.5 31.5q68 0 116 -31.5t73.5 -110t25.5 -218.5t-25.5 -218.5t-73.5 -110t-116 -31.5zM265 50q24 0 46.5 13.5t40.5 46.5t28 91.5t10 148.5t-10 148.5t-28 91.5t-40.5 46.5t-46.5 13.5t-46.5 -13.5
t-40.5 -46.5t-28 -91.5t-10 -148.5t10 -148.5t28 -91.5t40.5 -46.5t46.5 -13.5zM142 750l75 130h95l75 -130h-60l-63 74l-62 -74h-60zM372 828l35 130h95l-70 -130h-60z" />
    <glyph glyph-name="uni1ED1" unicode="&#x1ed1;" horiz-adv-x="460" 
d="M230 -10q-60 0 -101 24.5t-62.5 81.5t-21.5 154q0 98 21.5 154.5t62.5 81t101 24.5t101.5 -24.5t62.5 -81t21 -154.5q0 -97 -21 -154t-62.5 -81.5t-101.5 -24.5zM230 45q25 0 46.5 18t35 62.5t13.5 124.5t-13.5 124.5t-35 62.5t-46.5 18t-46.5 -18t-35 -62.5
t-13.5 -124.5t13.5 -124.5t35 -62.5t46.5 -18zM107 550l75 130h95l75 -130h-60l-63 74l-62 -74h-60zM337 628l35 130h95l-70 -130h-60z" />
    <glyph glyph-name="uni1ED2" unicode="&#x1ed2;" horiz-adv-x="530" 
d="M265 -10q-67 0 -115.5 31.5t-74 110t-25.5 218.5t25.5 218.5t74 110t115.5 31.5q68 0 116 -31.5t73.5 -110t25.5 -218.5t-25.5 -218.5t-73.5 -110t-116 -31.5zM265 50q24 0 46.5 13.5t40.5 46.5t28 91.5t10 148.5t-10 148.5t-28 91.5t-40.5 46.5t-46.5 13.5t-46.5 -13.5
t-40.5 -46.5t-28 -91.5t-10 -148.5t10 -148.5t28 -91.5t40.5 -46.5t46.5 -13.5zM142 750l75 130h95l75 -130h-60l-63 74l-62 -74h-60zM386 847l-63 130h95l28 -130h-60z" />
    <glyph glyph-name="uni1ED3" unicode="&#x1ed3;" horiz-adv-x="460" 
d="M230 -10q-60 0 -101 24.5t-62.5 81.5t-21.5 154q0 98 21.5 154.5t62.5 81t101 24.5t101.5 -24.5t62.5 -81t21 -154.5q0 -97 -21 -154t-62.5 -81.5t-101.5 -24.5zM230 45q25 0 46.5 18t35 62.5t13.5 124.5t-13.5 124.5t-35 62.5t-46.5 18t-46.5 -18t-35 -62.5
t-13.5 -124.5t13.5 -124.5t35 -62.5t46.5 -18zM107 550l75 130h95l75 -130h-60l-63 74l-62 -74h-60zM351 647l-63 130h95l28 -130h-60z" />
    <glyph glyph-name="uni1ED4" unicode="&#x1ed4;" horiz-adv-x="530" 
d="M265 -10q-67 0 -115.5 31.5t-74 110t-25.5 218.5t25.5 218.5t74 110t115.5 31.5q68 0 116 -31.5t73.5 -110t25.5 -218.5t-25.5 -218.5t-73.5 -110t-116 -31.5zM265 50q24 0 46.5 13.5t40.5 46.5t28 91.5t10 148.5t-10 148.5t-28 91.5t-40.5 46.5t-46.5 13.5t-46.5 -13.5
t-40.5 -46.5t-28 -91.5t-10 -148.5t10 -148.5t28 -91.5t40.5 -46.5t46.5 -13.5zM142 750l75 130h95l75 -130h-60l-63 74l-62 -74h-60zM377 815q0 21 11 33.5t22 22.5t11 23q0 37 -42 37h-50v47q8 3 24 5.5t33 2.5q23 0 44.5 -7.5t35.5 -26.5t14 -54q0 -18 -13 -31t-26 -24.5
t-13 -27.5h-51z" />
    <glyph glyph-name="uni1ED5" unicode="&#x1ed5;" horiz-adv-x="460" 
d="M230 -10q-60 0 -101 24.5t-62.5 81.5t-21.5 154q0 98 21.5 154.5t62.5 81t101 24.5t101.5 -24.5t62.5 -81t21 -154.5q0 -97 -21 -154t-62.5 -81.5t-101.5 -24.5zM230 45q25 0 46.5 18t35 62.5t13.5 124.5t-13.5 124.5t-35 62.5t-46.5 18t-46.5 -18t-35 -62.5
t-13.5 -124.5t13.5 -124.5t35 -62.5t46.5 -18zM107 550l75 130h95l75 -130h-60l-63 74l-62 -74h-60zM342 615q0 21 11 33.5t22 22.5t11 23q0 37 -42 37h-50v47q8 3 24 5.5t33 2.5q23 0 44.5 -7.5t35.5 -26.5t14 -54q0 -18 -13 -31t-26 -24.5t-13 -27.5h-51z" />
    <glyph glyph-name="uni1ED6" unicode="&#x1ed6;" horiz-adv-x="530" 
d="M265 -10q-67 0 -115.5 31.5t-74 110t-25.5 218.5t25.5 218.5t74 110t115.5 31.5q68 0 116 -31.5t73.5 -110t25.5 -218.5t-25.5 -218.5t-73.5 -110t-116 -31.5zM265 50q24 0 46.5 13.5t40.5 46.5t28 91.5t10 148.5t-10 148.5t-28 91.5t-40.5 46.5t-46.5 13.5t-46.5 -13.5
t-40.5 -46.5t-28 -91.5t-10 -148.5t10 -148.5t28 -91.5t40.5 -46.5t46.5 -13.5zM142 750l75 130h95l75 -130h-60l-63 74l-62 -74h-60zM305 911q-19 0 -31 9t-20.5 21t-16.5 21t-17 9q-25 0 -25 -45h-50q0 56 19.5 80.5t60.5 24.5q19 0 31 -9t20.5 -21t16.5 -21t17 -9
q25 0 25 45h50q0 -56 -19.5 -80.5t-60.5 -24.5z" />
    <glyph glyph-name="uni1ED7" unicode="&#x1ed7;" horiz-adv-x="460" 
d="M230 -10q-60 0 -101 24.5t-62.5 81.5t-21.5 154q0 98 21.5 154.5t62.5 81t101 24.5t101.5 -24.5t62.5 -81t21 -154.5q0 -97 -21 -154t-62.5 -81.5t-101.5 -24.5zM230 45q25 0 46.5 18t35 62.5t13.5 124.5t-13.5 124.5t-35 62.5t-46.5 18t-46.5 -18t-35 -62.5
t-13.5 -124.5t13.5 -124.5t35 -62.5t46.5 -18zM107 550l75 130h95l75 -130h-60l-63 74l-62 -74h-60zM270 711q-19 0 -31 9t-20.5 21t-16.5 21t-17 9q-25 0 -25 -45h-50q0 56 19.5 80.5t60.5 24.5q19 0 31 -9t20.5 -21t16.5 -21t17 -9q25 0 25 45h50q0 -56 -19.5 -80.5
t-60.5 -24.5z" />
    <glyph glyph-name="uni1ED8" unicode="&#x1ed8;" horiz-adv-x="530" 
d="M265 -10q-67 0 -115.5 31.5t-74 110t-25.5 218.5t25.5 218.5t74 110t115.5 31.5q68 0 116 -31.5t73.5 -110t25.5 -218.5t-25.5 -218.5t-73.5 -110t-116 -31.5zM265 50q24 0 46.5 13.5t40.5 46.5t28 91.5t10 148.5t-10 148.5t-28 91.5t-40.5 46.5t-46.5 13.5t-46.5 -13.5
t-40.5 -46.5t-28 -91.5t-10 -148.5t10 -148.5t28 -91.5t40.5 -46.5t46.5 -13.5zM228 -156v91h74v-91h-74zM142 750l75 130h95l75 -130h-60l-63 74l-62 -74h-60z" />
    <glyph glyph-name="uni1ED9" unicode="&#x1ed9;" horiz-adv-x="460" 
d="M230 -10q-60 0 -101 24.5t-62.5 81.5t-21.5 154q0 98 21.5 154.5t62.5 81t101 24.5t101.5 -24.5t62.5 -81t21 -154.5q0 -97 -21 -154t-62.5 -81.5t-101.5 -24.5zM230 45q25 0 46.5 18t35 62.5t13.5 124.5t-13.5 124.5t-35 62.5t-46.5 18t-46.5 -18t-35 -62.5
t-13.5 -124.5t13.5 -124.5t35 -62.5t46.5 -18zM193 -156v91h74v-91h-74zM107 550l75 130h95l75 -130h-60l-63 74l-62 -74h-60z" />
    <glyph glyph-name="uni1EDA" unicode="&#x1eda;" horiz-adv-x="530" 
d="M265 -10q-67 0 -115.5 31.5t-74 110t-25.5 218.5t25.5 218.5t74 110t115.5 31.5q68 0 116 -31.5t73.5 -110t25.5 -218.5t-25.5 -218.5t-73.5 -110t-116 -31.5zM265 50q24 0 46.5 13.5t40.5 46.5t28 91.5t10 148.5t-10 148.5t-28 91.5t-40.5 46.5t-46.5 13.5t-46.5 -13.5
t-40.5 -46.5t-28 -91.5t-10 -148.5t10 -148.5t28 -91.5t40.5 -46.5t46.5 -13.5zM320 650v50q35 0 57 15.5t22 58.5h74q0 -49 -22 -76t-56.5 -37.5t-74.5 -10.5zM235 760l35 130h95l-70 -130h-60z" />
    <glyph glyph-name="uni1EDB" unicode="&#x1edb;" horiz-adv-x="460" 
d="M230 -10q-60 0 -101 24.5t-62.5 81.5t-21.5 154q0 98 21.5 154.5t62.5 81t101 24.5t101.5 -24.5t62.5 -81t21 -154.5q0 -97 -21 -154t-62.5 -81.5t-101.5 -24.5zM230 45q25 0 46.5 18t35 62.5t13.5 124.5t-13.5 124.5t-35 62.5t-46.5 18t-46.5 -18t-35 -62.5
t-13.5 -124.5t13.5 -124.5t35 -62.5t46.5 -18zM291 450v50q35 0 57 15.5t22 58.5h74q0 -49 -22 -76t-56.5 -37.5t-74.5 -10.5zM200 560l35 130h95l-70 -130h-60z" />
    <glyph glyph-name="uni1EDC" unicode="&#x1edc;" horiz-adv-x="530" 
d="M265 -10q-67 0 -115.5 31.5t-74 110t-25.5 218.5t25.5 218.5t74 110t115.5 31.5q68 0 116 -31.5t73.5 -110t25.5 -218.5t-25.5 -218.5t-73.5 -110t-116 -31.5zM265 50q24 0 46.5 13.5t40.5 46.5t28 91.5t10 148.5t-10 148.5t-28 91.5t-40.5 46.5t-46.5 13.5t-46.5 -13.5
t-40.5 -46.5t-28 -91.5t-10 -148.5t10 -148.5t28 -91.5t40.5 -46.5t46.5 -13.5zM320 650v50q35 0 57 15.5t22 58.5h74q0 -49 -22 -76t-56.5 -37.5t-74.5 -10.5zM228 760l-63 130h95l28 -130h-60z" />
    <glyph glyph-name="uni1EDD" unicode="&#x1edd;" horiz-adv-x="460" 
d="M230 -10q-60 0 -101 24.5t-62.5 81.5t-21.5 154q0 98 21.5 154.5t62.5 81t101 24.5t101.5 -24.5t62.5 -81t21 -154.5q0 -97 -21 -154t-62.5 -81.5t-101.5 -24.5zM230 45q25 0 46.5 18t35 62.5t13.5 124.5t-13.5 124.5t-35 62.5t-46.5 18t-46.5 -18t-35 -62.5
t-13.5 -124.5t13.5 -124.5t35 -62.5t46.5 -18zM291 450v50q35 0 57 15.5t22 58.5h74q0 -49 -22 -76t-56.5 -37.5t-74.5 -10.5zM193 560l-63 130h95l28 -130h-60z" />
    <glyph glyph-name="uni1EDE" unicode="&#x1ede;" horiz-adv-x="530" 
d="M265 -10q-67 0 -115.5 31.5t-74 110t-25.5 218.5t25.5 218.5t74 110t115.5 31.5q68 0 116 -31.5t73.5 -110t25.5 -218.5t-25.5 -218.5t-73.5 -110t-116 -31.5zM265 50q24 0 46.5 13.5t40.5 46.5t28 91.5t10 148.5t-10 148.5t-28 91.5t-40.5 46.5t-46.5 13.5t-46.5 -13.5
t-40.5 -46.5t-28 -91.5t-10 -148.5t10 -148.5t28 -91.5t40.5 -46.5t46.5 -13.5zM320 650v50q35 0 57 15.5t22 58.5h74q0 -49 -22 -76t-56.5 -37.5t-74.5 -10.5zM237 749q0 21 11 33.5t22 22.5t11 23q0 37 -42 37h-50v47q8 3 24 5.5t33 2.5q23 0 44.5 -7.5t35.5 -26.5t14 -54
q0 -18 -13 -31t-26 -24.5t-13 -27.5h-51z" />
    <glyph glyph-name="uni1EDF" unicode="&#x1edf;" horiz-adv-x="460" 
d="M230 -10q-60 0 -101 24.5t-62.5 81.5t-21.5 154q0 98 21.5 154.5t62.5 81t101 24.5t101.5 -24.5t62.5 -81t21 -154.5q0 -97 -21 -154t-62.5 -81.5t-101.5 -24.5zM230 45q25 0 46.5 18t35 62.5t13.5 124.5t-13.5 124.5t-35 62.5t-46.5 18t-46.5 -18t-35 -62.5
t-13.5 -124.5t13.5 -124.5t35 -62.5t46.5 -18zM291 450v50q35 0 57 15.5t22 58.5h74q0 -49 -22 -76t-56.5 -37.5t-74.5 -10.5zM202 549q0 21 11 33.5t22 22.5t11 23q0 37 -42 37h-50v47q8 3 24 5.5t33 2.5q23 0 44.5 -7.5t35.5 -26.5t14 -54q0 -18 -13 -31t-26 -24.5
t-13 -27.5h-51z" />
    <glyph glyph-name="uni1EE0" unicode="&#x1ee0;" horiz-adv-x="530" 
d="M265 -10q-67 0 -115.5 31.5t-74 110t-25.5 218.5t25.5 218.5t74 110t115.5 31.5q68 0 116 -31.5t73.5 -110t25.5 -218.5t-25.5 -218.5t-73.5 -110t-116 -31.5zM265 50q24 0 46.5 13.5t40.5 46.5t28 91.5t10 148.5t-10 148.5t-28 91.5t-40.5 46.5t-46.5 13.5t-46.5 -13.5
t-40.5 -46.5t-28 -91.5t-10 -148.5t10 -148.5t28 -91.5t40.5 -46.5t46.5 -13.5zM320 650v50q35 0 57 15.5t22 58.5h74q0 -49 -22 -76t-56.5 -37.5t-74.5 -10.5zM305 765q-19 0 -31 9t-20.5 21t-16.5 21t-17 9q-25 0 -25 -45h-50q0 56 19.5 80.5t60.5 24.5q19 0 31 -9
t20.5 -21t16.5 -21t17 -9q25 0 25 45h50q0 -56 -19.5 -80.5t-60.5 -24.5z" />
    <glyph glyph-name="uni1EE1" unicode="&#x1ee1;" horiz-adv-x="460" 
d="M230 -10q-60 0 -101 24.5t-62.5 81.5t-21.5 154q0 98 21.5 154.5t62.5 81t101 24.5t101.5 -24.5t62.5 -81t21 -154.5q0 -97 -21 -154t-62.5 -81.5t-101.5 -24.5zM230 45q25 0 46.5 18t35 62.5t13.5 124.5t-13.5 124.5t-35 62.5t-46.5 18t-46.5 -18t-35 -62.5
t-13.5 -124.5t13.5 -124.5t35 -62.5t46.5 -18zM291 450v50q35 0 57 15.5t22 58.5h74q0 -49 -22 -76t-56.5 -37.5t-74.5 -10.5zM270 565q-19 0 -31 9t-20.5 21t-16.5 21t-17 9q-25 0 -25 -45h-50q0 56 19.5 80.5t60.5 24.5q19 0 31 -9t20.5 -21t16.5 -21t17 -9q25 0 25 45h50
q0 -56 -19.5 -80.5t-60.5 -24.5z" />
    <glyph glyph-name="uni1EE2" unicode="&#x1ee2;" horiz-adv-x="530" 
d="M265 -10q-67 0 -115.5 31.5t-74 110t-25.5 218.5t25.5 218.5t74 110t115.5 31.5q68 0 116 -31.5t73.5 -110t25.5 -218.5t-25.5 -218.5t-73.5 -110t-116 -31.5zM265 50q24 0 46.5 13.5t40.5 46.5t28 91.5t10 148.5t-10 148.5t-28 91.5t-40.5 46.5t-46.5 13.5t-46.5 -13.5
t-40.5 -46.5t-28 -91.5t-10 -148.5t10 -148.5t28 -91.5t40.5 -46.5t46.5 -13.5zM320 650v50q35 0 57 15.5t22 58.5h74q0 -49 -22 -76t-56.5 -37.5t-74.5 -10.5zM228 -156v91h74v-91h-74z" />
    <glyph glyph-name="uni1EE3" unicode="&#x1ee3;" horiz-adv-x="460" 
d="M230 -10q-60 0 -101 24.5t-62.5 81.5t-21.5 154q0 98 21.5 154.5t62.5 81t101 24.5t101.5 -24.5t62.5 -81t21 -154.5q0 -97 -21 -154t-62.5 -81.5t-101.5 -24.5zM230 45q25 0 46.5 18t35 62.5t13.5 124.5t-13.5 124.5t-35 62.5t-46.5 18t-46.5 -18t-35 -62.5
t-13.5 -124.5t13.5 -124.5t35 -62.5t46.5 -18zM291 450v50q35 0 57 15.5t22 58.5h74q0 -49 -22 -76t-56.5 -37.5t-74.5 -10.5zM193 -156v91h74v-91h-74z" />
    <glyph glyph-name="uni1EE4" unicode="&#x1ee4;" horiz-adv-x="520" 
d="M260 -10q-70 0 -114 23t-65 77.5t-21 149.5v460h90v-460q0 -75 13 -116t37.5 -57.5t59.5 -16.5t59.5 16.5t37.5 57.5t13 116v460h90v-460q0 -95 -21 -149.5t-65 -77.5t-114 -23zM223 -156v91h74v-91h-74z" />
    <glyph glyph-name="uni1EE5" unicode="&#x1ee5;" horiz-adv-x="475" 
d="M220 -10q-47 0 -82 12.5t-54 45t-19 92.5v360h90v-360q0 -52 27 -71t68 -19q19 0 39 6.5t31 13.5v430h90v-500h-75l-5 30h-5q-19 -19 -47 -29.5t-58 -10.5zM201 -156v91h74v-91h-74z" />
    <glyph glyph-name="uni1EE6" unicode="&#x1ee6;" horiz-adv-x="520" 
d="M260 -10q-70 0 -114 23t-65 77.5t-21 149.5v460h90v-460q0 -75 13 -116t37.5 -57.5t59.5 -16.5t59.5 16.5t37.5 57.5t13 116v460h90v-460q0 -95 -21 -149.5t-65 -77.5t-114 -23zM232 749q0 21 11 33.5t22 22.5t11 23q0 37 -42 37h-50v47q8 3 24 5.5t33 2.5
q23 0 44.5 -7.5t35.5 -26.5t14 -54q0 -18 -13 -31t-26 -24.5t-13 -27.5h-51z" />
    <glyph glyph-name="uni1EE7" unicode="&#x1ee7;" horiz-adv-x="475" 
d="M220 -10q-47 0 -82 12.5t-54 45t-19 92.5v360h90v-360q0 -52 27 -71t68 -19q19 0 39 6.5t31 13.5v430h90v-500h-75l-5 30h-5q-19 -19 -47 -29.5t-58 -10.5zM210 549q0 21 11 33.5t22 22.5t11 23q0 37 -42 37h-50v47q8 3 24 5.5t33 2.5q23 0 44.5 -7.5t35.5 -26.5t14 -54
q0 -18 -13 -31t-26 -24.5t-13 -27.5h-51z" />
    <glyph glyph-name="uni1EE8" unicode="&#x1ee8;" horiz-adv-x="520" 
d="M260 -10q-70 0 -114 23t-65 77.5t-21 149.5v460h90v-460q0 -75 13 -116t37.5 -57.5t59.5 -16.5t59.5 16.5t37.5 57.5t13 116v460h90v-460q0 -95 -21 -149.5t-65 -77.5t-114 -23zM405 650v50q35 0 57 15.5t22 58.5h74q0 -49 -22 -76t-56.5 -37.5t-74.5 -10.5zM230 760
l35 130h95l-70 -130h-60z" />
    <glyph glyph-name="uni1EE9" unicode="&#x1ee9;" horiz-adv-x="475" 
d="M220 -10q-47 0 -82 12.5t-54 45t-19 92.5v360h90v-360q0 -52 27 -71t68 -19q19 0 39 6.5t31 13.5v430h90v-500h-75l-5 30h-5q-19 -19 -47 -29.5t-58 -10.5zM378 450v50q35 0 57 15.5t22 58.5h74q0 -49 -22 -76t-56.5 -37.5t-74.5 -10.5zM208 560l35 130h95l-70 -130h-60z
" />
    <glyph glyph-name="uni1EEA" unicode="&#x1eea;" horiz-adv-x="520" 
d="M260 -10q-70 0 -114 23t-65 77.5t-21 149.5v460h90v-460q0 -75 13 -116t37.5 -57.5t59.5 -16.5t59.5 16.5t37.5 57.5t13 116v460h90v-460q0 -95 -21 -149.5t-65 -77.5t-114 -23zM405 650v50q35 0 57 15.5t22 58.5h74q0 -49 -22 -76t-56.5 -37.5t-74.5 -10.5zM223 760
l-63 130h95l28 -130h-60z" />
    <glyph glyph-name="uni1EEB" unicode="&#x1eeb;" horiz-adv-x="475" 
d="M220 -10q-47 0 -82 12.5t-54 45t-19 92.5v360h90v-360q0 -52 27 -71t68 -19q19 0 39 6.5t31 13.5v430h90v-500h-75l-5 30h-5q-19 -19 -47 -29.5t-58 -10.5zM378 450v50q35 0 57 15.5t22 58.5h74q0 -49 -22 -76t-56.5 -37.5t-74.5 -10.5zM201 560l-63 130h95l28 -130h-60z
" />
    <glyph glyph-name="uni1EEC" unicode="&#x1eec;" horiz-adv-x="520" 
d="M260 -10q-70 0 -114 23t-65 77.5t-21 149.5v460h90v-460q0 -75 13 -116t37.5 -57.5t59.5 -16.5t59.5 16.5t37.5 57.5t13 116v460h90v-460q0 -95 -21 -149.5t-65 -77.5t-114 -23zM405 650v50q35 0 57 15.5t22 58.5h74q0 -49 -22 -76t-56.5 -37.5t-74.5 -10.5zM232 749
q0 21 11 33.5t22 22.5t11 23q0 37 -42 37h-50v47q8 3 24 5.5t33 2.5q23 0 44.5 -7.5t35.5 -26.5t14 -54q0 -18 -13 -31t-26 -24.5t-13 -27.5h-51z" />
    <glyph glyph-name="uni1EED" unicode="&#x1eed;" horiz-adv-x="475" 
d="M220 -10q-47 0 -82 12.5t-54 45t-19 92.5v360h90v-360q0 -52 27 -71t68 -19q19 0 39 6.5t31 13.5v430h90v-500h-75l-5 30h-5q-19 -19 -47 -29.5t-58 -10.5zM378 450v50q35 0 57 15.5t22 58.5h74q0 -49 -22 -76t-56.5 -37.5t-74.5 -10.5zM210 549q0 21 11 33.5t22 22.5
t11 23q0 37 -42 37h-50v47q8 3 24 5.5t33 2.5q23 0 44.5 -7.5t35.5 -26.5t14 -54q0 -18 -13 -31t-26 -24.5t-13 -27.5h-51z" />
    <glyph glyph-name="uni1EEE" unicode="&#x1eee;" horiz-adv-x="520" 
d="M260 -10q-70 0 -114 23t-65 77.5t-21 149.5v460h90v-460q0 -75 13 -116t37.5 -57.5t59.5 -16.5t59.5 16.5t37.5 57.5t13 116v460h90v-460q0 -95 -21 -149.5t-65 -77.5t-114 -23zM405 650v50q35 0 57 15.5t22 58.5h74q0 -49 -22 -76t-56.5 -37.5t-74.5 -10.5zM300 765
q-19 0 -31 9t-20.5 21t-16.5 21t-17 9q-25 0 -25 -45h-50q0 56 19.5 80.5t60.5 24.5q19 0 31 -9t20.5 -21t16.5 -21t17 -9q25 0 25 45h50q0 -56 -19.5 -80.5t-60.5 -24.5z" />
    <glyph glyph-name="uni1EEF" unicode="&#x1eef;" horiz-adv-x="475" 
d="M220 -10q-47 0 -82 12.5t-54 45t-19 92.5v360h90v-360q0 -52 27 -71t68 -19q19 0 39 6.5t31 13.5v430h90v-500h-75l-5 30h-5q-19 -19 -47 -29.5t-58 -10.5zM378 450v50q35 0 57 15.5t22 58.5h74q0 -49 -22 -76t-56.5 -37.5t-74.5 -10.5zM278 565q-19 0 -31 9t-20.5 21
t-16.5 21t-17 9q-25 0 -25 -45h-50q0 56 19.5 80.5t60.5 24.5q19 0 31 -9t20.5 -21t16.5 -21t17 -9q25 0 25 45h50q0 -56 -19.5 -80.5t-60.5 -24.5z" />
    <glyph glyph-name="uni1EF0" unicode="&#x1ef0;" horiz-adv-x="520" 
d="M260 -10q-70 0 -114 23t-65 77.5t-21 149.5v460h90v-460q0 -75 13 -116t37.5 -57.5t59.5 -16.5t59.5 16.5t37.5 57.5t13 116v460h90v-460q0 -95 -21 -149.5t-65 -77.5t-114 -23zM405 650v50q35 0 57 15.5t22 58.5h74q0 -49 -22 -76t-56.5 -37.5t-74.5 -10.5zM223 -156v91
h74v-91h-74z" />
    <glyph glyph-name="uni1EF1" unicode="&#x1ef1;" horiz-adv-x="475" 
d="M220 -10q-47 0 -82 12.5t-54 45t-19 92.5v360h90v-360q0 -52 27 -71t68 -19q19 0 39 6.5t31 13.5v430h90v-500h-75l-5 30h-5q-19 -19 -47 -29.5t-58 -10.5zM378 450v50q35 0 57 15.5t22 58.5h74q0 -49 -22 -76t-56.5 -37.5t-74.5 -10.5zM201 -156v91h74v-91h-74z" />
    <glyph glyph-name="Ygrave" unicode="&#x1ef2;" 
d="M180 0v220l-170 480h90l125 -355l125 355h90l-170 -480v-220h-90zM188 760l-63 130h95l28 -130h-60z" />
    <glyph glyph-name="ygrave" unicode="&#x1ef3;" horiz-adv-x="475" 
d="M210 -210q-30 0 -63.5 6.5t-56.5 13.5v40h100q68 0 99 35.5t31 129.5q-22 -11 -46 -18t-54 -7q-47 0 -82 12.5t-54 45t-19 92.5v360h90v-360q0 -52 27 -71t68 -19q19 0 39 6.5t31 13.5v430h90v-460q0 -95 -21 -149.5t-65 -77.5t-114 -23zM201 560l-63 130h95l28 -130h-60
z" />
    <glyph glyph-name="uni1EF4" unicode="&#x1ef4;" 
d="M180 0v220l-170 480h90l125 -355l125 355h90l-170 -480v-220h-90zM188 -156v91h74v-91h-74z" />
    <glyph glyph-name="uni1EF5" unicode="&#x1ef5;" horiz-adv-x="475" 
d="M210 -210q-30 0 -63.5 6.5t-56.5 13.5v40h100q68 0 99 35.5t31 129.5q-22 -11 -46 -18t-54 -7q-47 0 -82 12.5t-54 45t-19 92.5v360h90v-360q0 -52 27 -71t68 -19q19 0 39 6.5t31 13.5v430h90v-460q0 -95 -21 -149.5t-65 -77.5t-114 -23zM444 -156v91h74v-91h-74z" />
    <glyph glyph-name="uni1EF6" unicode="&#x1ef6;" 
d="M180 0v220l-170 480h90l125 -355l125 355h90l-170 -480v-220h-90zM197 749q0 21 11 33.5t22 22.5t11 23q0 37 -42 37h-50v47q8 3 24 5.5t33 2.5q23 0 44.5 -7.5t35.5 -26.5t14 -54q0 -18 -13 -31t-26 -24.5t-13 -27.5h-51z" />
    <glyph glyph-name="uni1EF7" unicode="&#x1ef7;" horiz-adv-x="475" 
d="M210 -210q-30 0 -63.5 6.5t-56.5 13.5v40h100q68 0 99 35.5t31 129.5q-22 -11 -46 -18t-54 -7q-47 0 -82 12.5t-54 45t-19 92.5v360h90v-360q0 -52 27 -71t68 -19q19 0 39 6.5t31 13.5v430h90v-460q0 -95 -21 -149.5t-65 -77.5t-114 -23zM210 549q0 21 11 33.5t22 22.5
t11 23q0 37 -42 37h-50v47q8 3 24 5.5t33 2.5q23 0 44.5 -7.5t35.5 -26.5t14 -54q0 -18 -13 -31t-26 -24.5t-13 -27.5h-51z" />
    <glyph glyph-name="uni1EF8" unicode="&#x1ef8;" 
d="M180 0v220l-170 480h90l125 -355l125 355h90l-170 -480v-220h-90zM265 765q-19 0 -31 9t-20.5 21t-16.5 21t-17 9q-25 0 -25 -45h-50q0 56 19.5 80.5t60.5 24.5q19 0 31 -9t20.5 -21t16.5 -21t17 -9q25 0 25 45h50q0 -56 -19.5 -80.5t-60.5 -24.5z" />
    <glyph glyph-name="uni1EF9" unicode="&#x1ef9;" horiz-adv-x="475" 
d="M210 -210q-30 0 -63.5 6.5t-56.5 13.5v40h100q68 0 99 35.5t31 129.5q-22 -11 -46 -18t-54 -7q-47 0 -82 12.5t-54 45t-19 92.5v360h90v-360q0 -52 27 -71t68 -19q19 0 39 6.5t31 13.5v430h90v-460q0 -95 -21 -149.5t-65 -77.5t-114 -23zM278 565q-19 0 -31 9t-20.5 21
t-16.5 21t-17 9q-25 0 -25 -45h-50q0 56 19.5 80.5t60.5 24.5q19 0 31 -9t20.5 -21t16.5 -21t17 -9q25 0 25 45h50q0 -56 -19.5 -80.5t-60.5 -24.5z" />
    <glyph glyph-name="endash" unicode="&#x2013;" horiz-adv-x="460" 
d="M30 245v70h400v-70h-400z" />
    <glyph glyph-name="emdash" unicode="&#x2014;" horiz-adv-x="640" 
d="M30 245v70h580v-70h-580z" />
    <glyph glyph-name="quoteleft" unicode="&#x2018;" horiz-adv-x="170" 
d="M40 480l30 220h65v-220h-95z" />
    <glyph glyph-name="quoteright" unicode="&#x2019;" horiz-adv-x="170" 
d="M40 480v220h95l-30 -220h-65z" />
    <glyph glyph-name="quotesinglbase" unicode="&#x201a;" horiz-adv-x="170" 
d="M40 -115v220h95l-30 -220h-65z" />
    <glyph glyph-name="quotedblleft" unicode="&#x201c;" horiz-adv-x="320" 
d="M185 480l30 220h65v-220h-95zM35 480l30 220h65v-220h-95z" />
    <glyph glyph-name="quotedblright" unicode="&#x201d;" horiz-adv-x="320" 
d="M190 480v220h95l-30 -220h-65zM40 480v220h95l-30 -220h-65z" />
    <glyph glyph-name="quotedblbase" unicode="&#x201e;" horiz-adv-x="320" 
d="M190 -115v220h95l-30 -220h-65zM40 -115v220h95l-30 -220h-65z" />
    <glyph glyph-name="dagger" unicode="&#x2020;" 
d="M180 -200v590h-160v70h160v240h90v-240h160v-70h-160v-590h-90z" />
    <glyph glyph-name="daggerdbl" unicode="&#x2021;" 
d="M180 -200v240h-160v70h160v280h-160v70h160v240h90v-240h160v-70h-160v-280h160v-70h-160v-240h-90z" />
    <glyph glyph-name="bullet" unicode="&#x2022;" horiz-adv-x="250" 
d="M45 270v159h160v-159h-160z" />
    <glyph glyph-name="ellipsis" unicode="&#x2026;" horiz-adv-x="510" 
d="M380 -5v110h90v-110h-90zM40 -5v110h90v-110h-90zM210 -5v110h90v-110h-90z" />
    <glyph glyph-name="perthousand" unicode="&#x2030;" horiz-adv-x="990" 
d="M100 0l390 700h90l-390 -700h-90zM510 -10q-67 0 -103.5 37.5t-36.5 112.5t36.5 112.5t103.5 37.5q68 0 104 -37.5t36 -112.5t-36 -112.5t-104 -37.5zM510 50q30 0 47.5 20.5t17.5 69.5t-17.5 69.5t-47.5 20.5t-47.5 -20.5t-17.5 -69.5t17.5 -69.5t47.5 -20.5zM170 410
q-67 0 -103.5 37.5t-36.5 112.5t36.5 112.5t103.5 37.5q68 0 104 -37.5t36 -112.5t-36 -112.5t-104 -37.5zM170 470q30 0 47.5 20.5t17.5 69.5t-17.5 69.5t-47.5 20.5t-47.5 -20.5t-17.5 -69.5t17.5 -69.5t47.5 -20.5zM820 -10q-67 0 -103.5 37.5t-36.5 112.5t36.5 112.5
t103.5 37.5q68 0 104 -37.5t36 -112.5t-36 -112.5t-104 -37.5zM820 50q30 0 47.5 20.5t17.5 69.5t-17.5 69.5t-47.5 20.5t-47.5 -20.5t-17.5 -69.5t17.5 -69.5t47.5 -20.5z" />
    <glyph glyph-name="guilsinglleft" unicode="&#x2039;" horiz-adv-x="295" 
d="M200 10l-180 240l180 240l65 -40l-145 -198v-4l145 -198z" />
    <glyph glyph-name="guilsinglright" unicode="&#x203a;" horiz-adv-x="295" 
d="M95 10l-65 40l145 198v4l-145 198l65 40l180 -240z" />
    <glyph glyph-name="fraction" unicode="&#x2044;" horiz-adv-x="370" 
d="M-50 0l390 700h80l-390 -700h-80z" />
    <glyph glyph-name="uni2074" unicode="&#x2074;" horiz-adv-x="310" 
d="M175 400v65h-145v50l140 185h70v-185h30v-50h-30v-65h-65zM100 515h75v98z" />
    <glyph glyph-name="Euro" unicode="&#x20ac;" horiz-adv-x="465" 
d="M300 -10q-60 0 -104.5 23.5t-72.5 80t-38 156.5h-75l10 65h60v70h-70l10 65h65q10 100 37.5 156.5t70 80t97.5 23.5q45 0 86.5 -6t63.5 -14v-45h-130q-32 0 -60 -16.5t-47.5 -58.5t-27.5 -120h205l-10 -65h-200v-70h185l-10 -65h-170q8 -77 28 -119.5t50 -59t67 -16.5
h130v-45q-22 -7 -63.5 -13.5t-86.5 -6.5z" />
    <glyph glyph-name="uni20AE" unicode="&#x20ae;" horiz-adv-x="430" 
d="M170 0v630h-160v70h410v-70h-160v-630h-90zM48 152v69l334 140v-69zM48 279v69l334 140v-69z" />
    <glyph glyph-name="uni20B4" unicode="&#x20b4;" horiz-adv-x="481" 
d="M271 -10q-124 0 -174.5 44t-50.5 126q0 64 32.5 103t79.5 66h134q-40 -19 -76 -39t-58 -48.5t-22 -71.5q0 -58 34.5 -86.5t120.5 -28.5h130v-45q-22 -7 -63.5 -13.5t-86.5 -6.5zM-5 293l17 57h451l-17 -57h-451zM23 390l17 57h451l-17 -57h-451zM238 412q41 22 67 52
t26 76q0 51 -30 78t-90 27h-130v45q23 8 64 14t86 6q98 0 144 -42.5t46 -117.5q0 -46 -20 -79.5t-52 -58.5h-111z" />
    <glyph glyph-name="uni20B8" unicode="&#x20b8;" horiz-adv-x="430" 
d="M170 0v510h-160v65h410v-65h-160v-510h-90zM10 635v65h410v-65h-410z" />
    <glyph glyph-name="uni20BD" unicode="&#x20bd;" horiz-adv-x="540" 
d="M120 0v690q38 11 76.5 15.5t83.5 4.5q80 0 128.5 -19t70 -65t21.5 -126q0 -82 -20.5 -129t-62.5 -66.5t-107 -19.5q-22 0 -51.5 3t-48.5 7v-295h-90zM30 161v65h330v-65h-330zM30 289v65h180v-65h-180zM210 355h70q68 0 99 30t31 115q0 86 -31 115.5t-99 29.5h-70v-290z
" />
    <glyph glyph-name="uni2116" unicode="&#x2116;" horiz-adv-x="850" 
d="M70 0v700h100l205 -495h5v495h90v-700h-100l-205 495h-5v-495h-90zM560 290v70h240v-70h-240zM680 410q-67 0 -103.5 37.5t-36.5 112.5t36.5 112.5t103.5 37.5q68 0 104 -37.5t36 -112.5t-36 -112.5t-104 -37.5zM680 470q30 0 47.5 20.5t17.5 69.5t-17.5 69.5t-47.5 20.5
t-47.5 -20.5t-17.5 -69.5t17.5 -69.5t47.5 -20.5z" />
    <glyph glyph-name="trademark" unicode="&#x2122;" horiz-adv-x="665" 
d="M275 400l20 300h77l83 -185l83 185h77l20 -300h-64l-14 205l-72 -160h-60l-72 160l-14 -205h-64zM100 400v250h-90v50h245v-50h-90v-250h-65z" />
    <glyph glyph-name="minus" unicode="&#x2212;" horiz-adv-x="430" 
d="M30 265v70h370v-70h-370z" />
    <glyph glyph-name="uni2215" unicode="&#x2215;" horiz-adv-x="390" 
d="M0 0l300 700h90l-300 -700h-90z" />
    <glyph glyph-name="brevecombcy" horiz-adv-x="0" 
d="M235 560q-49 0 -82.5 20t-52.5 50l40 40q15 -15 40 -27.5t55 -12.5t55 12.5t40 27.5l40 -40q-19 -30 -52.5 -50t-82.5 -20z" />
    <glyph glyph-name="brevecombcy.case" horiz-adv-x="0" 
d="M270 760q-49 0 -85 20.5t-55 54.5l40 40q15 -15 40.5 -30t59.5 -15t59.5 15t40.5 30l40 -40q-19 -34 -55 -54.5t-85 -20.5z" />
    <glyph glyph-name="descendercy" horiz-adv-x="200" 
d="M95 -145q-11 30 -18.5 69t-11.5 76h-65v65h150v-210h-55z" />
    <glyph glyph-name="verticalbarcy" horiz-adv-x="444" 
d="M200 75v270h44v-270h-44z" />
    <glyph glyph-name="descendercy.case" horiz-adv-x="205" 
d="M100 -150q-11 30 -18.5 67.5t-11.5 82.5h-70v70h155v-220h-55z" />
    <glyph glyph-name="verticalbarcy.case" horiz-adv-x="444" 
d="M200 165v290h44v-290h-44z" />
    </font>
</defs>
</svg>
